[ Сегодня идет свободное скачивание без начисления Download ]


Статистика раздачи
Нет
 
   
 
Top  
 
 
-Неизбежность / Пленница / Inescapable(2012) HDRip- Год выпуска: 2012
Производство: Канада, ЮАР
Жанр: Триллер, Драма, Детектив
Описание фильма:
Бывший сотрудник секретной службы Сирии, обвинённый в шпионаже, двадцать лет назад, бежал в Канаду. Возвращаться на родину он не планировал, пока его дочь-фотокорреспондента не похитили в Дамаске. В стране, в которой герой приговорён к смертной казни, а тайная полиция может арестовать без повода любого, ему предстоит разыскать дочь с помощью старых друзей…
Режиссер: Руба Надда
Актеры: Александр Сиддиг, Джошуа Джексон, Мариса Томей, Одед Фер, Саад Сиддикуи, Фадия Надда, Джессика Энсти
Продолжительность: 01:32:56
Качество видео: HDRip
Перевод: Двуголосый закадровый, профессиональный (НТВ+)

Дата мировой премьеры: 11 сентября 2012
Видеокодек: Xvid
Видео: 720x400 (1.80:1), 24 fps, XviD MPEG-4 ~1899 kbps avg, 0.27 bit/pixel
Аудиокодек: AC3 2.0
Аудио: 48 kHz, AC3 Dolby Digital, 2/0 (L,R) ch, ~192 kbps

MediaInfo:

Общее
Полное имя : C:Торренты\Пленница.[Неизбежность].2012.HDRip.avi
Формат : AVI
Формат/Информация : Audio Video Interleave
Размер файла : 1,36 Гбайт
Продолжительность : 1 ч. 32 м.
Общий поток : 2101 Кбит/сек
Программа кодирования : VirtualDubMod 1.5.10.3 (build 2550/release)
Библиотека кодирования : VirtualDubMod build 2550/release
Видео
Идентификатор : 0
Формат : MPEG-4 Visual
Профиль формата : Advanced Simple@L5
Параметр BVOP формата : 2
Параметр QPel формата : Нет
Параметр GMC формата : Без точки перехода
Параметр матрицы формата : Выборочная
Режим смешивания : Сжатый битовый поток
Идентификатор кодека : XVID
Идентификатор кодека/Подсказка : XviD
Продолжительность : 1 ч. 32 м.
Битрейт : 1899 Кбит/сек
Ширина : 720 пикселей
Высота : 400 пикселей
Соотношение сторон : 16:9
Частота кадров : 24,000 кадра/сек
Цветовое пространство : YUV
Субдискретизация насыщенности : 4:2:0
Битовая глубина : 8 бит
Тип развёртки : Прогрессивная
Метод сжатия : С потерями
Бит/(Пиксели*Кадры) : 0.275
Размер потока : 1,23 Гбайт (90%)
Библиотека кодирования : XviD 64
Аудио
Идентификатор : 1
Формат : AC-3
Формат/Информация : Audio Coding 3
Расширение режима : CM (complete main)
Параметр Endianness формата : Big
Идентификатор кодека : 2000
Продолжительность : 1 ч. 32 м.
Вид битрейта : Постоянный
Битрейт : 192 Кбит/сек
Каналы : 2 канала
Расположение каналов : Front: L R
Частота : 48,0 КГц
Битовая глубина : 16 бит
Метод сжатия : С потерями
Размер потока : 128 Мбайт (9%)
Выравнивание : Разделение по промежуткам
Продолжительность промежутка : 42 мс. (1,00 видеокадр)
Время предзагрузки промежутка : 500 мс.
Скриншоты:
[th]http://img.torrentsclub.org/di/RUEE/FppemKX.jpg[/th] [th]http://img.torrentsclub.org/di/AZMO/Q4zOQJX.jpg[/th] [th]http://img.torrentsclub.org/di/7TWK/QQV9Pj5.jpg[/th]
Время раздачи: с 10.00 до 22.00

[Цитировать]



Показать сообщения:    

Текущее время: 07-Дек 19:32

Часовой пояс: UTC + 3


Вы не можете начинать темы
Вы не можете отвечать на сообщения
Вы не можете редактировать свои сообщения
Вы не можете удалять свои сообщения
Вы не можете голосовать в опросах
Вы не можете прикреплять файлы к сообщениям
Вы не можете скачивать файлы

!ВНИМАНИЕ!
Сайт не предоставляет электронные версии произведений, а занимается лишь коллекционированием и каталогизацией ссылок, присылаемых и публикуемых на форуме нашими читателями. Если вы являетесь правообладателем какого-либо представленного материала и не желаете, чтобы ссылка на него находилась в нашем каталоге, свяжитесь с нами, и мы незамедлительно удалим ее. Файлы для обмена на трекере предоставлены пользователями сайта, и администрация не несет ответственности за их содержание. Просьба не заливать файлы, защищенные авторскими правами, а также файлы нелегального содержания!