[ Сегодня идет свободное скачивание без начисления Download ]


Статистика раздачи
Нет
 
   
 
 
 
- Год выпуска: 2012
Страна: Япония
Жанр: приключения, фэнтези
Продолжительность: 25 эп. по 24 мин.-Перевод:
  • русские субтитры от Evafan + Stan WarHammer (полные/вспомогательные)
-Режиссер: Ито Томохико
Студия: A-1 Pictures Inc.-Описание:
В начале XXI века случилась ожидаемая сенсация – некий японский гений создал ролевую игру с абсолютной виртуальной реальностью. Неудивительно, что «Искусство меча онлайн» обрело бешеную популярность, и 10 тысяч счастливчиков, кому достался первый тираж, в назначенный день и час разом оказались в игровом мире, собравшись в Городе Начал. Тут лукавый создатель, явившийся в виде огромной тени, и огорошил клиентов – оказывается, он задумал эксперимент, и выйти из виртуала можно, лишь когда кто-то пройдет игру до конца! Гибель в игре означает смерть в реальном мире, работать надо на полном серьезе – с этими словами злой гений удалился, а собравшиеся быстро поняли, что он прав.
Незадачливые игроки отреагировали по-разному: кто впал в отчаяние, кто стал сбиваться в группы, а кто-то решил жить сам по себе. В число последних попал и Кирито – сирота, который ничего не потерял. Более того, будучи бета-тестером и опытным игроком, Кирито быстро продвинулся, обретя славу как Черный Мечник. С одной стороны, парень сторонился общения, не желая больше заводить и терять близких; с другой – жить в игре и быть свободным от людей нельзя, особенно от таких, как красавица Асуна по прозвищу Вспышка! В общем, пока что Кирито, Асуна, другие герои и злодеи воюют на переднем крае, а мы верим, что они пройдут не только «Искусство меча», но и еще много интересных игр и миров!
© Hollow, World Art-Информационные ссылки: AniDB || World Art || MAL-Качество: BDRip
Энкод: Yousei-raws | [email protected] rizon. net
Тип видео: без хардсаба
Формат: mkv
Видео: x264 (Hi10p), 1280x720, ~2900 Kbps, 23.976 fps
Аудио JAP: Vorbis, 48000Hz, ~256 Kbps, 2ch
Аудио RUS 1-9: AC3, 48000Hz, ~192 Kbps, 2ch (внешними файлами)
-

Список озвучек в раздаче

  • одноголосая (жен.) от Persona99 (GetSmart)
  • одноголосая (муж.) от OSLIKt (AniDub)
  • одноголосая (муж.) от JAM (Animedia)
  • двухголосая (муж./жен.) от Valkrist & Kedra (Animereactor)
  • двухголосая (муж./жен.) от Lee-Ann & Moonslayer (AniSense)
  • двухголосая (муж./жен.) от Trouble & Акварелька
  • двухголосая (муж./жен.) от Zendos, Say (1-10) | Eladiel (Anilibria)
  • трехголосая от ShadMG & ЖуЖа & Z9IbLeG (SHIZA)
  • многоголосая от Renegade team

Список эпизодов

01. The World of Swords
02. Beater
03. The Red-Nosed Reindeer
04. The Black Swordsman
05. A Crime Within the Walls
06. Illusionary Avenger
07. The Temperature of the Heart
08. The Sword Dance of White and Black
09. The Blue-Eyed Demon
10. Crimson Killing Intent
11. The Girl of the Morning Dew
12. Yui`s Heart
13. Edge of Hell`s Abyss
14. The End of the World
15. Return
16. Land of the Fairies
17. Captive Queen
18. To the World Tree
19. The Lugru Corridor
20. General of the Blazing Flame
21. The Truth of Alfheim
22. Grand Quest
23. Bonds
24. Gilded Hero
25. The World Seed

Подробные тех. данные

Общее
Уникальный идентификатор : 251391537772397053999555219803164514580 (0xBD203FC0D522FD4CA8931005FF3E1914)
Полное имя : Z:\Anime\720p\Sword Art Online [BD] [720p]\[Yousei-raws] Sword Art Online 02 [BDRip 1280x720 x264 Vorbis].mkv
Формат : Matroska
Версия формата : Version 2
Размер файла : 637 Мбайт
Продолжительность : 23 м.
Режим общего битрейта : Переменный
Общий поток : 3755 Кбит/сек
Дата кодирования : UTC 2012-10-31 11:49:11
Программа кодирования : mkvmerge v2.9.7 ('Tenderness') built on Jul 1 2009 18:43:35
Библиотека кодирования : libebml v0.7.7 + libmatroska v0.8.1
Видео
Идентификатор : 1
Формат : AVC
Формат/Информация : Advanced Video Codec
Профиль формата : High [email protected]
Параметр CABAC формата : Да
Параметр ReFrames формата : 9 кадров
Идентификатор кодека : V_MPEG4/ISO/AVC
Продолжительность : 23 м.
Битрейт : 3424 Кбит/сек
Ширина : 1280 пикселей
Высота : 720 пикселей
Соотношение сторон : 16:9
Режим частоты кадров : Постоянный
Частота кадров : 23,976 кадра/сек
Цветовое пространство : YUV
Субдискретизация насыщенности : 4:2:0
Битовая глубина : 10 бит
Тип развёртки : Прогрессивная
Бит/(Пиксели*Кадры) : 0.155
Размер потока : 581 Мбайт (91%)
Библиотека кодирования : x264 core 125 r2200 999b753
Настройки программы : cabac=1 / ref=9 / deblock=1:-2:-2 / analyse=0x3:0x133 / me=umh / subme=9 / psy=1 / psy_rd=0.90:0.00 / mixed_ref=1 / me_range=24 / chroma_me=1 / trellis=2 / 8x8dct=1 / cqm=0 / deadzone=21,11 / fast_pskip=1 / chroma_qp_offset=-2 / threads=6 / lookahead_threads=1 / sliced_threads=0 / nr=0 / decimate=0 / interlaced=0 / bluray_compat=0 / constrained_intra=0 / bframes=8 / b_pyramid=2 / b_adapt=2 / b_bias=0 / direct=1 / weightb=1 / open_gop=0 / weightp=2 / keyint=250 / keyint_min=23 / scenecut=40 / intra_refresh=0 / rc=crf / mbtree=0 / crf=15.6 / qcomp=0.70 / qpmin=9 / qpmax=40 / qpstep=4 / ip_ratio=1.40 / pb_ratio=1.30 / aq=1:0.90
Default : Да
Forced : Нет
Аудио
Идентификатор : 2
Формат : Vorbis
Параметр Floor формата : 1
Идентификатор кодека : A_VORBIS
Продолжительность : 23 м.
Вид битрейта : Переменный
Битрейт : 256 Кбит/сек
Каналы : 2 канала
Частота : 48,0 КГц
Метод сжатия : С потерями
Размер потока : 43,4 Мбайт (7%)
Библиотека кодирования : libVorbis (Schaufenugget) (20101101 (Schaufenugget))
Язык : Japanese
Default : Да
Forced : Нет

[Цитировать]



Показать сообщения:    

Текущее время: 06-Дек 13:17

Часовой пояс: UTC + 3


Вы не можете начинать темы
Вы не можете отвечать на сообщения
Вы не можете редактировать свои сообщения
Вы не можете удалять свои сообщения
Вы не можете голосовать в опросах
Вы не можете прикреплять файлы к сообщениям
Вы не можете скачивать файлы

!ВНИМАНИЕ!
Сайт не предоставляет электронные версии произведений, а занимается лишь коллекционированием и каталогизацией ссылок, присылаемых и публикуемых на форуме нашими читателями. Если вы являетесь правообладателем какого-либо представленного материала и не желаете, чтобы ссылка на него находилась в нашем каталоге, свяжитесь с нами, и мы незамедлительно удалим ее. Файлы для обмена на трекере предоставлены пользователями сайта, и администрация не несет ответственности за их содержание. Просьба не заливать файлы, защищенные авторскими правами, а также файлы нелегального содержания!