[ Сегодня идет свободное скачивание без начисления Download ]


Статистика раздачи
Нет
 
   
 
Top  
 
 
-Майор (2013) WEB-DLRip«Майор - просто человек»- Год выпуска: 2013
Производство: Россия / ТПО Рок
Жанр: криминал, драма
Перевод: Не требуется
Субтитры: нет
Дата мировой премьеры: 28 июня 2013
Дата российской премьеры: 8 августа 2013, «Bazelevs Distribution»
Режиссер: Юрий Быков
Продюсер: Алексей Учитель, Кира Саксаганская, Алексей Алексеев
Актеры: Денис Шведов, Ирина Низина, Илья Исаев, Юрий Быков, Дмитрий Куличков, Борис Невзоров, Кирилл Полухин
Описание фильма:В день долгожданных родов своей жены майор полиции Сергей Соболев мчится в роддом вне себя от счастья. На скользкой зимней дороге он насмерть сбивает семилетнего мальчика на глазах у несчастной матери. Превышение скорости, неосторожность и пешеходный переход — доказательства очевидны, как и нежелание молодого отца угодить за решетку. Майор использует свое служебное положение, чтобы оправдать себя… Сам того не желая, он запускает целую череду смертей, остановить которую решится слишком поздно.
[imdb]tt2594950[/imdb] [kp]675498[/kp]
Зрителям, достигшим 18 лет
Тех.Данные:
Качество видео: WEB-DLRip |Рип с WEB-DL 720p-LQ|
Продолжительность: 01:35:22
Формат: Audio Video Interleave (AVI)
Видео: 720x304 (2.37:1), 25 fps, XviD build 50 ~1987 kbps avg, 0.36 bit/pixel
Аудио: 48 kHz, AC3 Dolby Digital, 2/0 (L,R) ch, 192 kbps

MediaInfo:

Общее
Полное имя : E:\Downloads\Майор.2013.WEBDLRip.NNM-Club.avi
Формат : AVI
Формат/Информация : Audio Video Interleave
Размер файла : 1,46 Гбайт
Продолжительность : 1 ч. 35 м.
Общий поток : 2189 Кбит/сек
Программа кодирования : VirtualDubMod 1.5.10.3 | www.virtualdub-fr.org || (build 2550/release)
Библиотека кодирования : VirtualDubMod build 2550/release
Видео
Идентификатор : 0
Формат : MPEG-4 Visual
Профиль формата : Advanced [email protected]
Параметр BVOP формата : 2
Параметр QPel формата : Нет
Параметр GMC формата : Без точки перехода
Параметр матрицы формата : Default (MPEG)
Идентификатор кодека : XVID
Идентификатор кодека/Подсказка : XviD
Продолжительность : 1 ч. 35 м.
Битрейт : 1987 Кбит/сек
Ширина : 720 пикселей
Высота : 304 пикселя
Соотношение сторон : 2,35:1
Частота кадров : 25,000 кадров/сек
Цветовое пространство : YUV
Субдискретизация насыщенности : 4:2:0
Битовая глубина : 8 бит
Тип развёртки : Прогрессивная
Метод сжатия : С потерями
Бит/(Пиксели*Кадры) : 0.363
Размер потока : 1,32 Гбайт (91%)
Библиотека кодирования : XviD 1.2.1 (UTC 2008-12-04)
Аудио
Идентификатор : 1
Формат : AC-3
Формат/Информация : Audio Coding 3
Расширение режима : CM (complete main)
Идентификатор кодека : 2000
Продолжительность : 1 ч. 35 м.
Вид битрейта : Постоянный
Битрейт : 192 Кбит/сек
Каналы : 2 канала
Расположение каналов : Front: L R
Частота : 48,0 КГц
Битовая глубина : 16 бит
Метод сжатия : С потерями
Размер потока : 131 Мбайт (9%)
Выравнивание : Разделение по промежуткам
Продолжительность промежутка : 40 мс. (1,00 видеокадр)
Время предзагрузки промежутка : 500 мс.

[Цитировать]

Топик был перенесен из форума Новинки кинопроката в форум Драма
Henkok



Показать сообщения:    

Текущее время: 04-Дек 09:11

Часовой пояс: UTC + 3


Вы не можете начинать темы
Вы не можете отвечать на сообщения
Вы не можете редактировать свои сообщения
Вы не можете удалять свои сообщения
Вы не можете голосовать в опросах
Вы не можете прикреплять файлы к сообщениям
Вы не можете скачивать файлы

!ВНИМАНИЕ!
Сайт не предоставляет электронные версии произведений, а занимается лишь коллекционированием и каталогизацией ссылок, присылаемых и публикуемых на форуме нашими читателями. Если вы являетесь правообладателем какого-либо представленного материала и не желаете, чтобы ссылка на него находилась в нашем каталоге, свяжитесь с нами, и мы незамедлительно удалим ее. Файлы для обмена на трекере предоставлены пользователями сайта, и администрация не несет ответственности за их содержание. Просьба не заливать файлы, защищенные авторскими правами, а также файлы нелегального содержания!