[ Сегодня идет свободное скачивание без начисления Download ]


Статистика раздачи
Нет
 
   
 
Top  
 
 
-Погнали! / Getaway (2013) BDRip [H.264]- Год выпуска: 2013
Производство: США, Болгария, Warner Bros., After Dark Films, Dark Castle Entertainment, Silver Reel
Жанр: Боевик, Криминал
Перевод: Многоголосый закадровый, профессиональный (Baibako)
Субтитры: Отсутствуют
Дата мировой премьеры: 29 августа 2013
Дата российской премьеры: 14 ноября 2013, «Каро-Премьер»
Дата выхода DVD релиза: 23 января 2014, «CP Дистрибуция»
Режиссер: Кортни Соломон
Продюсер: Моше Дайамант, Кристофер Милбёрн, Кортни Соломон
Актеры: Итан Хоук, Селена Гомес, Джон Войт, Ребекка Бьюдиг, Пол Фримен, Брюс Пэйн, Ивайло Герасков, Димо Алексиев, Велислав Павлов, Деян Ангелов
Описание фильма:
Бывшему гонщику Бренту приходится сесть за руль и следовать указаниям таинственного человека, чтобы спасти свою похищенную жену.

Продолжительность: 01:30:04
Качество видео: BDRip | исх. Getaway (2013) Blu-ray Remux 1080i AVC DTS-HD MA 5.1-ExKinoRay
Видеокодек: MPEG-4 AVC/H.264
Битрейт видео: 1865 kb/s
Размер кадра: 1024x424, 23.976 fps
Аудио #1: 48 kHz, AC3 Dolby Digital, 3/2 (L,C,R,l,r) + LFE ch, 384.00 kbps (Русский) / Многоголосый закадровый
Аудио #2: 48 kHz, AC3 Dolby Digital, 3/2 (L,C,R,l,r) + LFE ch, 448.00 kbps (Английский) / Оригинал

MI

[code]Общее
Уникальный идентификатор : 226485398616752177051659589530387476323 (0xAA6380492789B670936935A0DDDBEF63)
Полное имя : E:\Разное\Pognali.2013.x264.BDRip.NNM-CLUB.mkv
Формат : Matroska
Версия формата : Version 4 / Version 2
Размер файла : 1,70 Гбайт
Продолжительность : 1 ч. 30 м.
Общий поток : 2696 Кбит/сек
Дата кодирования : UTC 2013-11-25 07:29:16
Программа кодирования : mkvmerge v6.1.0 ('Old Devil') built on Mar 4 2013 09:10:42
Библиотека кодирования : libebml v1.3.0 + libmatroska v1.4.0
Видео
Идентификатор : 1
Формат : AVC
Формат/Информация : Advanced Video Codec
Профиль формата : [email protected]
Параметр CABAC формата : Да
Параметр ReFrames формата : 10 кадров
Идентификатор кодека : V_MPEG4/ISO/AVC
Продолжительность : 1 ч. 30 м.
Битрейт : 1865 Кбит/сек
Ширина : 1024 пикселя
Высота : 424 пикселя
Соотношение сторон : 2,40:1
Режим частоты кадров : Постоянный
Частота кадров : 23,976 кадра/сек
Цветовое пространство : YUV
Субдискретизация насыщенности : 4:2:0
Битовая глубина : 8 бит
Тип развёртки : Прогрессивная
Бит/(Пиксели*Кадры) : 0.179
Размер потока : 1,14 Гбайт (67%)
Библиотека кодирования : x264 core 130 r2273 b3065e6
Настройки программы : cabac=1 / ref=10 / deblock=1:-3:-3 / analyse=0x3:0x133 / me=umh / subme=11 / psy=1 / psy_rd=1.00:0.20 / mixed_ref=1 / me_range=32 / chroma_me=1 / trellis=2 / 8x8dct=1 / cqm=0 / deadzone=21,11 / fast_pskip=0 / chroma_qp_offset=-3 / threads=12 / lookahead_threads=2 / sliced_threads=0 / nr=0 / decimate=0 / interlaced=0 / bluray_compat=0 / constrained_intra=0 / bframes=8 / b_pyramid=2 / b_adapt=2 / b_bias=0 / direct=3 / weightb=1 / open_gop=0 / weightp=2 / keyint=250 / keyint_min=23 / scenecut=40 / intra_refresh=0 / rc=2pass / mbtree=0 / bitrate=1865 / ratetol=1.0 / qcomp=0.60 / qpmin=0 / qpmax=69 / qpstep=4 / cplxblur=20.0 / qblur=0.5 / ip_ratio=1.40 / pb_ratio=1.30 / aq=1:1.00
Язык : English
Default : Да
Forced : Нет
Аудио #1
Идентификатор : 2
Формат : AC-3
Формат/Информация : Audio Coding 3
Расширение режима : CM (complete main)
Параметр Endianness формата : Big
Идентификатор кодека : A_AC3
Продолжительность : 1 ч. 30 м.
Вид битрейта : Постоянный
Битрейт : 384 Кбит/сек
Каналы : 6 каналов
Расположение каналов : Front: L C R, Side: L R, LFE
Частота : 48,0 КГц
Битовая глубина : 16 бит
Метод сжатия : С потерями
Размер потока : 247 Мбайт (14%)
Язык : Russian
Default : Да
Forced : Нет
Аудио #2
Идентификатор : 3
Формат : AC-3
Формат/Информация : Audio Coding 3
Расширение режима : CM (complete main)
Параметр Endianness формата : Big
Идентификатор кодека : A_AC3
Продолжительность : 1 ч. 30 м.
Вид битрейта : Постоянный
Битрейт : 448 Кбит/сек
Каналы : 6 каналов
Расположение каналов : Front: L C R, Side: L R, LFE
Частота : 48,0 КГц
Битовая глубина : 16 бит
Метод сжатия : С потерями
Размер потока : 289 Мбайт (17%)
Язык : English
Default : Нет
Forced : Нет

[Цитировать]

Топик был перенесен из форума Новинки кинопроката в форум Боевик
Henkok



Показать сообщения:    

Текущее время: 04-Дек 23:28

Часовой пояс: UTC + 3


Вы не можете начинать темы
Вы не можете отвечать на сообщения
Вы не можете редактировать свои сообщения
Вы не можете удалять свои сообщения
Вы не можете голосовать в опросах
Вы не можете прикреплять файлы к сообщениям
Вы не можете скачивать файлы

!ВНИМАНИЕ!
Сайт не предоставляет электронные версии произведений, а занимается лишь коллекционированием и каталогизацией ссылок, присылаемых и публикуемых на форуме нашими читателями. Если вы являетесь правообладателем какого-либо представленного материала и не желаете, чтобы ссылка на него находилась в нашем каталоге, свяжитесь с нами, и мы незамедлительно удалим ее. Файлы для обмена на трекере предоставлены пользователями сайта, и администрация не несет ответственности за их содержание. Просьба не заливать файлы, защищенные авторскими правами, а также файлы нелегального содержания!