[ Сегодня идет свободное скачивание без начисления Download ]


Статистика раздачи
Нет
 
   
 
 
 
-Погнали! / Getaway (2013) BDRip [720p]- -Год выпуска: 2013
Производство: США, Болгария / After Dark Films, Dark Castle Entertainment
Жанр: боевик, криминал
Перевод: Профессиональный (многоголосый)
Субтитры: Отсутствуют-Дата мировой премьеры: 26 августа 2013
Дата российской премьеры: N/A
Дата украинской премьеры: 5 сентября 2013, «Киномания»
Дата выхода DVD релиза: 23 января 2014, «CP Дистрибуция»
Дата выхода Blu Ray релиза: 23 января 2014, «CP Дистрибуция»-Режиссер: Кортни Соломон
Актеры: Итан Хоук, Селена Гомес, Джон Войт, Ребекка Бьюдиг, Пол Фримен, Брюс Пэйн, Ивайло Герасков, Димо Алексиев, Велислав Павлов, Деян Ангелов-Описание фильма:
Бывшему гонщику Бренту приходится сесть за руль и следовать указаниям таинственного человека, чтобы спасти свою похищенную жену.-

-Продолжительность: 01:30:02
Качество видео: BDRip [720p]-Видеокодек: MPEG-4 AVC/H.264, 1280х536; 5435 Kbps, [email protected];
Аудио#1: [RUS]: AC3 5.1; 384.00 kbps; 48.0 kHz; 16-bits [Baibako]
Аудио#2: [ENG]: AC3 5.1; 640.00 kbps; 48.0 kHz; 16-bits [Оригинал]
Дополнительно: Сохранены оригинальные чаптеры.

MediaInfo:

General
Unique ID                                : 211271609837714214184880372617202366928 (0x9EF16E962530B62687FA94B159F3F9D0)
Complete name                            : C:\Getaway.(2013).720p.BDRip.mkv
Format                                   : Matroska
Format version                           : Version 2
File size                                : 4.06 GiB
Duration                                 : 1h 30mn
Overall bit rate                         : 6 460 Kbps
Encoded date                             : UTC 2013-11-25 09:31:08
Writing application                      : mkvmerge v5.8.0 ('No Sleep / Pillow') built on Sep  2 2012 15:37:04
Writing library                          : libebml v1.2.3 + libmatroska v1.3.0
Attachment                               : Yes
Video
ID                                       : 1
Format                                   : AVC
Format/Info                              : Advanced Video Codec
Format profile                           : [url=mailto:[email protected]][email protected][/url]
Format settings, CABAC                   : Yes
Format settings, ReFrames                : 5 frames
Muxing mode                              : Header stripping
Codec ID                                 : V_MPEG4/ISO/AVC
Duration                                 : 1h 30mn
Bit rate                                 : 5 435 Kbps
Width                                    : 1 280 pixels
Height                                   : 536 pixels
Display aspect ratio                     : 2.40:1
Frame rate                               : 23.976 fps
Color space                              : YUV
Chroma subsampling                       : 4:2:0
Bit depth                                : 8 bits
Scan type                                : Progressive
Bits/(Pixel*Frame)                       : 0.330
Stream size                              : 3.34 GiB (82%)
Title                                    : Video
Writing library                          : x264 core 140 r2377 1ca7bb9
Encoding settings                        : cabac=1 / ref=5 / deblock=1:0:0 / analyse=0x3:0x133 / me=umh / subme=7 / psy=1 / psy_rd=1.00:0.00 / mixed_ref=1 / me_range=16 / chroma_me=1 / trellis=1 / 8x8dct=1 / cqm=0 / deadzone=21,11 / fast_pskip=0 / chroma_qp_offset=-2 / threads=18 / lookahead_threads=3 / sliced_threads=0 / nr=0 / decimate=1 / interlaced=0 / bluray_compat=0 / constrained_intra=0 / bframes=3 / b_pyramid=2 / b_adapt=2 / b_bias=0 / direct=3 / weightb=1 / open_gop=0 / weightp=2 / keyint=250 / keyint_min=23 / scenecut=40 / intra_refresh=0 / rc_lookahead=50 / rc=2pass / mbtree=1 / bitrate=5435 / ratetol=1.0 / qcomp=0.60 / qpmin=0 / qpmax=69 / qpstep=4 / cplxblur=20.0 / qblur=0.5 / ip_ratio=1.40 / aq=1:1.00
Language                                 : English
Default                                  : Yes
Forced                                   : No
Audio #1
ID                                       : 2
Format                                   : AC-3
Format/Info                              : Audio Coding 3
Mode extension                           : CM (complete main)
Format settings, Endianness              : Big
Muxing mode                              : Header stripping
Codec ID                                 : A_AC3
Duration                                 : 1h 30mn
Bit rate mode                            : Constant
Bit rate                                 : 384 Kbps
Channel(s)                               : 6 channels
Channel positions                        : Front: L C R, Side: L R, LFE
Sampling rate                            : 48.0 KHz
Bit depth                                : 16 bits
Compression mode                         : Lossy
Stream size                              : 247 MiB (6%)
Title                                    : Baibako
Language                                 : Russian
Default                                  : Yes
Forced                                   : No
Audio #2
ID                                       : 3
Format                                   : AC-3
Format/Info                              : Audio Coding 3
Mode extension                           : CM (complete main)
Format settings, Endianness              : Big
Muxing mode                              : Header stripping
Codec ID                                 : A_AC3
Duration                                 : 1h 30mn
Bit rate mode                            : Constant
Bit rate                                 : 640 Kbps
Channel(s)                               : 6 channels
Channel positions                        : Front: L C R, Side: L R, LFE
Sampling rate                            : 48.0 KHz
Bit depth                                : 16 bits
Compression mode                         : Lossy
Stream size                              : 412 MiB (10%)
Title                                    : Original
Language                                 : English
Default                                  : No
Forced                                   : No
Menu
00:00:00.000                             : en:00:00:00.000
00:09:36.701                             : en:00:09:36.701
00:20:01.200                             : en:00:20:01.200
00:30:40.589                             : en:00:30:40.589
00:41:12.762                             : en:00:41:12.762
00:50:33.739                             : en:00:50:33.739
01:00:03.475                             : en:01:00:03.475
01:10:07.578                             : en:01:10:07.578
01:18:37.713                             : en:01:18:37.713
01:22:02.209                             : en:01:22:02.209
Скриншоты:
[th]http://img.torrentsclub.org/di/MSHD/24b564a5f37941c...1f0a115.png[/th] [th]http://img.torrentsclub.org/di/516J/ca95c4ab524f67c...150376f.png[/th] [th]http://img.torrentsclub.org/di/2U0L/fc702816795b9df...36970bd.png[/th]

[Цитировать]



Показать сообщения:    

Текущее время: 04-Дек 02:58

Часовой пояс: UTC + 3


Вы не можете начинать темы
Вы не можете отвечать на сообщения
Вы не можете редактировать свои сообщения
Вы не можете удалять свои сообщения
Вы не можете голосовать в опросах
Вы не можете прикреплять файлы к сообщениям
Вы не можете скачивать файлы

!ВНИМАНИЕ!
Сайт не предоставляет электронные версии произведений, а занимается лишь коллекционированием и каталогизацией ссылок, присылаемых и публикуемых на форуме нашими читателями. Если вы являетесь правообладателем какого-либо представленного материала и не желаете, чтобы ссылка на него находилась в нашем каталоге, свяжитесь с нами, и мы незамедлительно удалим ее. Файлы для обмена на трекере предоставлены пользователями сайта, и администрация не несет ответственности за их содержание. Просьба не заливать файлы, защищенные авторскими правами, а также файлы нелегального содержания!