[ Сегодня идет свободное скачивание без начисления Download ]


Статистика раздачи
Нет
 
   
 
Top  
 
 
[sh]Монстр / Monster
«Based on a true story»
[/sh]
- Год выпуска: 2003
Страна: США, Германия
Жанр: Драма, криминал, биография-Продолжительность: 1:48:48
Перевод №1: Профессиональный (полное дублирование)
Перевод №2: Профессиональный (многоголосый закадровый) {отдельно на файлообменнике}
Субтитры: Нет-Режиссер: Пэтти Дженкинс / Patty Jenkins
В ролях: Шарлиз Терон, Кристина Риччи, Брюс Дерн, Ли Тергесен, Энни Корли, Прюитт Тэйлор Винс, Марко Ст. Джон, Марк Маколей, Скотт Уилсон, Рас Блэквелл и др.-Описание: Любовная история, разворачивающаяся на фоне ужасных преступлений двух отверженных — проститутки-бродяжки Уорнос, убивающей многих из своих клиентов — «джонни», и Селби Уолл, отосланной родителями к тетке во Флориду, чтобы «излечить от лесбийских наклонностей».
Отчаявшаяся, близкая к самоубийству Эйлин забредает в бар, где встречается с Селби и влюбляется в нее. Чтобы жить с Селби, она продолжает продавать свое тело. В ней нарастает смертельная ярость, приводящая к череде убийств, в результате которых средства массовой информации назовут ее Монстром — первым серийным убийцей среди женщин…-Бюджет: $8 000 000 | Маркетинг: $10 000 000
Сборы в США: $34 469 210 | Сборы в Мире: + $25 909 374 = $60 378 584 | Сборы в России: $525 000
Рейтинг MPAA: R (Лицам до 17 лет обязательно присутствие взрослого!)
-Качество видео: BDRip
Формат видео: AVI
Видео: 704x384 (1.83:1), 23.976 fps, XviD build 73 ~1523 kbps avg, 0.23 bit/pixel
Аудио #1: 48 kHz, AC3 Dolby Digital, 3/2 (L,C,R,l,r) + LFE ch, ~384.00 kbps avg [Dub]
Аудио #2: 48 kHz, AC3 Dolby Digital, 2/0 (L,R) ch, ~192.00 kbps avg [MVO] {отдельно на файлообменнике}

MediaInfo

[color=black]General
Complete name                            : C:\Users\Downloads\Encode\The Monster (Remux)\Monster.2003.BDRip.[R.G.AllFilms].avi
Format                                   : AVI
Format/Info                              : Audio Video Interleave
File size                                : 1.46 GiB
Duration                                 : 1h 48mn
Overall bit rate                         : 1 917 Kbps
Movie name                               : Monster (2003) - BDRip by Ювелир aka (Deekay)
Writing application                      : VirtualDubMod 1.5.10.3 | www.virtualdub-fr.org || (build 2550/release)
Video
ID                                       : 0
Format                                   : MPEG-4 Visual
Format profile                           : Advanced Simple@L5
Format settings, BVOP                    : 2
Format settings, QPel                    : No
Format settings, GMC                     : No warppoints
Format settings, Matrix                  : Custom
Codec ID                                 : XVID
Codec ID/Hint                            : XviD
Duration                                 : 1h 48mn
Bit rate                                 : 1 524 Kbps
Width                                    : 704 pixels
Height                                   : 384 pixels
Display aspect ratio                     : 1.85:1
Frame rate                               : 23.976 fps
Color space                              : YUV
Chroma subsampling                       : 4:2:0
Bit depth                                : 8 bits
Scan type                                : Progressive
Compression mode                         : Lossy
Bits/(Pixel*Frame)                       : 0.235
Stream size                              : 1.16 GiB (79%)
Writing library                          : XviD 73
Audio
ID                                       : 1
Format                                   : AC-3
Format/Info                              : Audio Coding 3
Mode extension                           : CM (complete main)
Format settings, Endianness              : Big
Codec ID                                 : 2000
Duration                                 : 1h 48mn
Bit rate mode                            : Constant
Bit rate                                 : 384 Kbps
Channel(s)                               : 6 channels
Channel positions                        : Front: L C R, Side: L R, LFE
Sampling rate                            : 48.0 KHz
Bit depth                                : 16 bits
Compression mode                         : Lossy
Stream size                              : 299 MiB (20%)
Alignment                                : Split accross interleaves
Interleave, duration                     : 42 ms (1.00 video frame)
Interleave, preload duration             : 500 ms[/color]

[Цитировать]



Показать сообщения:    

Текущее время: 08-Дек 09:07

Часовой пояс: UTC + 3


Вы не можете начинать темы
Вы не можете отвечать на сообщения
Вы не можете редактировать свои сообщения
Вы не можете удалять свои сообщения
Вы не можете голосовать в опросах
Вы не можете прикреплять файлы к сообщениям
Вы не можете скачивать файлы

!ВНИМАНИЕ!
Сайт не предоставляет электронные версии произведений, а занимается лишь коллекционированием и каталогизацией ссылок, присылаемых и публикуемых на форуме нашими читателями. Если вы являетесь правообладателем какого-либо представленного материала и не желаете, чтобы ссылка на него находилась в нашем каталоге, свяжитесь с нами, и мы незамедлительно удалим ее. Файлы для обмена на трекере предоставлены пользователями сайта, и администрация не несет ответственности за их содержание. Просьба не заливать файлы, защищенные авторскими правами, а также файлы нелегального содержания!