[ Сегодня идет свободное скачивание без начисления Download ]


Статистика раздачи
Нет
 
   
 
Top  
 
 
-Конец света 2013: Апокалипсис по-голливудски / This Is the End (2013) BDRip-AVC- -Год выпуска: 2013
Производство: США / Mandate Pictures, Point Grey Pictures, Sony Pictures Entertainment (SPE)
Жанр: Комедия, фэнтези
Перевод: Дублированный (Лицензия) + Оригинал (английский)
Язык субтитров: Русский, английский
Вид субтитров: Вшитые отключаемые (полные + SDH + SDH / COLORED)-Дата мировой премьеры: 3 июня 2013
Дата российской премьеры: 19 сентября 2013, «WDSSPR»
Дата выхода DVD релиза: 12 декабря 2013, «Columbia/Sony»-Режиссер: Сет Роген, Ивэн Голдберг
Продюсер: Ивэн Голдберг, Сет Роген, Джеймс Уивер
Актеры: Джеймс Франко, Джона Хилл, Сет Роген, Джей Барушель, Дэнни МакБрайд, Крэйг Робинсон, Майкл Сера, Эмма Уотсон, Минди Калинг, Дэвид Крамхолц-Описание фильма:
Джей Барушель приезжает в Лос-Анджелес, чтобы посетить старого друга и коллегу, актера Сета Рогена, который пригласил Барушеля на новоселье, которое организовывает Джеймс Франко. На не очень приличную вечеринку приехали многие знаменитости. Барушелю неудобно среди такого количества людей, он практически не знает лично таких знаменитостей, как: Джона Хилл, Кристофер Минц-Плассе, Майкл Сера, Крейг Робинсон, Эмма Уотсон и Ченнинг Татум. Роген, чтобы немного успокоить друга, сопровождает его в магазин за сигаретами.

Продолжительность: 01:46:41
Качество видео: BDRip-AVC-Видеокодек: mpeg-4 avc/h.264
Битрейт видео: ~2035 Кбит/с
Размер кадра: 1264х528
Аудио:
#1: AC-3, 448 Кбит/сек, 6 каналов, 48,0 КГц (Русский)
#2: AC-3, 448 Кбит/сек, 6 каналов, 48,0 КГц (Английский)-

MediaInfo

Общее
Уникальный идентификатор : 172162208533659879571611816978713199790 (0x81853C3AB30ADE1F9ED11957322CC4AE)
Полное имя : D:\Мои видеозаписи\(На NNM)\Apokalipsi.po.Gollivudski.2013.mkv
Формат : Matroska
Версия формата : Version 4 / Version 2
Размер файла : 2,19 Гбайт
Продолжительность : 1 ч. 46 м.
Общий поток : 2934 Кбит/сек
Название фильма : HELLYWOOD - rip by potroks
Дата кодирования : UTC 2013-11-25 17:13:55
Программа кодирования : mkvmerge v5.9.0 ('On The Loose') built on Dec 15 2012 16:39:58
Библиотека кодирования : libebml v1.3.0 + libmatroska v1.4.0
Видео
Идентификатор : 1
Формат : AVC
Формат/Информация : Advanced Video Codec
Профиль формата : High@L4.1
Параметр CABAC формата : Да
Параметр ReFrames формата : 13 кадров
Идентификатор кодека : V_MPEG4/ISO/AVC
Продолжительность : 1 ч. 46 м.
Битрейт : 2035 Кбит/сек
Ширина : 1264 пикселя
Высота : 528 пикселей
Соотношение сторон : 2,40:1
Режим частоты кадров : Постоянный
Частота кадров : 23,976 кадра/сек
Цветовое пространство : YUV
Субдискретизация насыщенности : 4:2:0
Битовая глубина : 8 бит
Тип развёртки : Прогрессивная
Бит/(Пиксели*Кадры) : 0.127
Размер потока : 1,48 Гбайт (67%)
Заголовок : This Is The End
Библиотека кодирования : x264 core 130 r2273 b3065e6
Настройки программы : cabac=1 / ref=13 / deblock=1:-2:-1 / analyse=0x3:0x133 / me=umh / subme=11 / psy=1 / psy_rd=1.05:0.00 / mixed_ref=1 / me_range=32 / chroma_me=1 / trellis=2 / 8x8dct=1 / cqm=0 / deadzone=21,11 / fast_pskip=0 / chroma_qp_offset=-2 / threads=8 / lookahead_threads=2 / sliced_threads=0 / nr=0 / decimate=0 / interlaced=0 / bluray_compat=0 / constrained_intra=0 / bframes=14 / b_pyramid=2 / b_adapt=2 / b_bias=0 / direct=3 / weightb=1 / open_gop=0 / weightp=2 / keyint=250 / keyint_min=23 / scenecut=40 / intra_refresh=0 / rc_lookahead=60 / rc=2pass / mbtree=0 / bitrate=2035 / ratetol=1.0 / qcomp=0.70 / qpmin=0 / qpmax=69 / qpstep=4 / cplxblur=20.0 / qblur=0.5 / vbv_maxrate=50000 / vbv_bufsize=62500 / nal_hrd=none / ip_ratio=1.35 / pb_ratio=1.25 / aq=1:0.80
Язык : English
Default : Да
Forced : Нет
Аудио #1
Идентификатор : 2
Формат : AC-3
Формат/Информация : Audio Coding 3
Расширение режима : CM (complete main)
Параметр Endianness формата : Big
Идентификатор кодека : A_AC3
Продолжительность : 1 ч. 46 м.
Вид битрейта : Постоянный
Битрейт : 448 Кбит/сек
Каналы : 6 каналов
Расположение каналов : Front: L C R, Side: L R, LFE
Частота : 48,0 КГц
Битовая глубина : 16 бит
Метод сжатия : С потерями
Размер потока : 342 Мбайт (15%)
Заголовок : Dub | DD 5.1 @ 448 kbps - BD CEE
Язык : Russian
Default : Да
Forced : Да
Аудио #2
Идентификатор : 3
Формат : AC-3
Формат/Информация : Audio Coding 3
Расширение режима : CM (complete main)
Параметр Endianness формата : Big
Идентификатор кодека : A_AC3
Продолжительность : 1 ч. 46 м.
Вид битрейта : Постоянный
Битрейт : 448 Кбит/сек
Каналы : 6 каналов
Расположение каналов : Front: L C R, Side: L R, LFE
Частота : 48,0 КГц
Битовая глубина : 16 бит
Метод сжатия : С потерями
Размер потока : 342 Мбайт (15%)
Заголовок : Original | DD 5.1 @ 448 kbps
Язык : English
Default : Нет
Forced : Нет
Текст #1
Идентификатор : 4
Формат : UTF-8
Идентификатор кодека : S_TEXT/UTF8
Идентификатор кодека/Информация : UTF-8 Plain Text
Заголовок : iTunes
Язык : Russian
Default : Нет
Forced : Нет
Текст #2
Идентификатор : 5
Формат : UTF-8
Идентификатор кодека : S_TEXT/UTF8
Идентификатор кодека/Информация : UTF-8 Plain Text
Заголовок : BluRay
Язык : English
Default : Нет
Forced : Нет
Текст #3
Идентификатор : 6
Формат : UTF-8
Идентификатор кодека : S_TEXT/UTF8
Идентификатор кодека/Информация : UTF-8 Plain Text
Заголовок : SDH
Язык : English
Default : Нет
Forced : Нет
Текст #4
Идентификатор : 7
Формат : UTF-8
Идентификатор кодека : S_TEXT/UTF8
Идентификатор кодека/Информация : UTF-8 Plain Text
Заголовок : SDH-COLORED
Язык : English
Default : Нет
Forced : Нет
Меню
00:00:00.000 : en:00:00:00.000
00:05:50.392 : en:00:05:50.392
00:12:12.732 : en:00:12:12.732
00:17:37.598 : en:00:17:37.598
00:23:49.011 : en:00:23:49.011
00:29:23.637 : en:00:29:23.637
00:38:27.847 : en:00:38:27.847
00:44:36.716 : en:00:44:36.716
00:49:16.328 : en:00:49:16.328
00:59:15.594 : en:00:59:15.594
01:06:03.001 : en:01:06:03.001
01:12:45.319 : en:01:12:45.319
01:19:24.969 : en:01:19:24.969
01:26:21.343 : en:01:26:21.343
01:33:17.967 : en:01:33:17.967
01:37:41.773 : en:01:37:41.773
-Скриншоты:
[th]http://img.torrentsclub.org/di/EBX7/0d313c521e7b2b0...027a0fa.png[/th] [th]http://img.torrentsclub.org/di/J2G4/8b749dd726c59a9...aa8cbc0.png[/th] [th]http://img.torrentsclub.org/di/EAWU/228d7c66c2e8dee...2311a1d.png[/th]Время раздачи: 24/7 до 10 скачавших

[Цитировать]

Топик был перенесен из форума Новинки кинопроката в форум Комедия
Henkok



Показать сообщения:    

Текущее время: 09-Дек 08:54

Часовой пояс: UTC + 3


Вы не можете начинать темы
Вы не можете отвечать на сообщения
Вы не можете редактировать свои сообщения
Вы не можете удалять свои сообщения
Вы не можете голосовать в опросах
Вы не можете прикреплять файлы к сообщениям
Вы не можете скачивать файлы

!ВНИМАНИЕ!
Сайт не предоставляет электронные версии произведений, а занимается лишь коллекционированием и каталогизацией ссылок, присылаемых и публикуемых на форуме нашими читателями. Если вы являетесь правообладателем какого-либо представленного материала и не желаете, чтобы ссылка на него находилась в нашем каталоге, свяжитесь с нами, и мы незамедлительно удалим ее. Файлы для обмена на трекере предоставлены пользователями сайта, и администрация не несет ответственности за их содержание. Просьба не заливать файлы, защищенные авторскими правами, а также файлы нелегального содержания!