[ Сегодня идет свободное скачивание без начисления Download ]


Статистика раздачи
Нет
 
   
 
Top  
 
 
-+1 / Плюс один / +1 (2013) WEB-DLRip- Год выпуска: 2013
Производство: США / Cinetel Films
Жанр: Триллер, фантастика, мелодрама
Перевод: Многоголосый закадровый, профессиональный
Озвучка / Автор перевода: Baibako
Субтитры: Отсутствуют
Дата мировой премьеры: 10 марта 2013 США Кинофестиваль «На юг через юго-запад»
Дата российской премьеры: 17 октября 2013, «West»
Режиссер: Дэннис Илиадис
Продюсер: Тим Перелл, Гай Ботам, Бекки Глупчински, ...
Актеры: Эшли Хиншоу, Риз Уэйкфилд, Натали Холл, Рода Гриффис, Логан Миллер, Марла Малкольм, Меган Хэйес, Ханна Касулка, Крисси Чэмберс, Кайт Джонсон
Описание фильма:
Трое друзей из колледжа отправляются на главную вечеринку десятилетия. Каждый ищет там что-то свое: любовь, секс или новые знакомства. Но праздник превращается в хаос, когда по соседству с домом, где все веселятся, падает метеорит.

Продолжительность: 01:36:12
Качество видео: WEB-DLRip
Видеокодек: Xvid
Битрейт видео: ~951 kb/s
Размер кадра: 688*288
Аудиокодек: MP3 2.0
Битрейт аудио: 128 kb/s
Semple.avi

MI

Общее
Полное имя : D:\Рипы выкладка [Deadmauvlad]\Plus.1.2013.P.HDRip.Deadmauvlad.R.G Goldenshara.avi
Формат : AVI
Формат/Информация : Audio Video Interleave
Размер файла : 749 Мбайт
Продолжительность : 1 ч. 36 м.
Общий поток : 1088 Кбит/сек
Название фильма : Plus.1.2013.P.HDRip.Deadmauvlad
Режиссёр : [Deadmauvlad]
Жанр : триллер
Программа кодирования : VirtualDubMod 1.5.10.3 | www.virtualdub-fr.org || (build 2550/release)
Формат оригинала/Имя : Фильм
Правообладатель : R.G GoldenShara
Видео
Идентификатор : 0
Формат : MPEG-4 Visual
Профиль формата : Advanced [email protected]
Параметр BVOP формата : 1
Параметр QPel формата : Нет
Параметр GMC формата : Без точки перехода
Параметр матрицы формата : Default (MPEG)
Идентификатор кодека : XVID
Идентификатор кодека/Подсказка : XviD
Продолжительность : 1 ч. 36 м.
Битрейт : 951
Ширина : 688 пикселей
Высота : 288 пикселей
Соотношение сторон : 2,40:1
Частота кадров : 23,976 кадра/сек
Цветовое пространство : YUV
Субдискретизация насыщенности : 4:2:0
Битовая глубина : 8 бит
Тип развёртки : Прогрессивная
Метод сжатия : С потерями
Бит/(Пиксели*Кадры) : 0.200
Размер потока : 654 Мбайт (87%)
Библиотека кодирования : XviD 1.2.1 (UTC 2008-12-04)
Аудио
Идентификатор : 1
Формат : MPEG Audio
Версия формата : Version 1
Профиль формата : Layer 3
Режим : Joint stereo
Идентификатор кодека : 55
Идентификатор кодека/Подсказка : MP3
Продолжительность : 1 ч. 36 м.
Вид битрейта : Постоянный
Битрейт : 128 Кбит/сек
Каналы : 2 канала
Частота : 48,0 КГц
Метод сжатия : С потерями
Размер потока : 88,1 Мбайт (12%)
Выравнивание : Разделение по промежуткам
Продолжительность промежутка : 42 мс. (1,00 видеокадр)
Время предзагрузки промежутка : 500 мс.
Библиотека кодирования : LAME3.99r
Настройки программы : -m j -V 4 -q 0 -lowpass 17.5 -b 128

Скриншоты

[Цитировать]

Топик был перенесен из форума Новинки кинопроката в форум Триллер
Henkok



Показать сообщения:    

Текущее время: 05-Дек 19:40

Часовой пояс: UTC + 3


Вы не можете начинать темы
Вы не можете отвечать на сообщения
Вы не можете редактировать свои сообщения
Вы не можете удалять свои сообщения
Вы не можете голосовать в опросах
Вы не можете прикреплять файлы к сообщениям
Вы не можете скачивать файлы

!ВНИМАНИЕ!
Сайт не предоставляет электронные версии произведений, а занимается лишь коллекционированием и каталогизацией ссылок, присылаемых и публикуемых на форуме нашими читателями. Если вы являетесь правообладателем какого-либо представленного материала и не желаете, чтобы ссылка на него находилась в нашем каталоге, свяжитесь с нами, и мы незамедлительно удалим ее. Файлы для обмена на трекере предоставлены пользователями сайта, и администрация не несет ответственности за их содержание. Просьба не заливать файлы, защищенные авторскими правами, а также файлы нелегального содержания!