[ Сегодня идет свободное скачивание без начисления Download ]


Статистика раздачи
Нет
 
   
 
 
 
- Год выпуска: 2005
Страна: Япония
Жанр: приключения, мистика, драма, вампиры, фантастика
Продолжительность: ТВ (24 эп.), ~24 мин.-Перевод:
  • русские субтитры от Mega-Anime - полные
  • русские субтитры от Тарасов Алексей aka Twinhead, Асни, Witwood [TASIW] - полные
  • русские субтитры от Асни, Witwood [TASIW] - только непереведённые фразы, надписи, OP, ED, превью
-Озвучка:
  • многоголосая с R5 от Mega-Anime
  • одноголосая (муж.) от Azazel
-Режиссер: Хирата Томохиро
Авторы оригинала: Ёсида Сунао
Студия: Gonzo Digimation-Описание: Несколько сот лет назад человечество совершило большую ошибку, и ошибка эта обошлась слишком дорого. И случилась великая катастрофа, и прокатился по Земле Армагеддон, и те, кто остались в живых, позавидовали мертвым. Ибо вместе с бедами на нашу планету пришли некие таинственные существа. Но люди уже сталкивались в своем прошлом с подобными им, а потом новому и страшному врагу дали имя, взятое из легенд… ВАМПИРЫ! Однако круговорот природы неумолим и жесток в своей разумности. Люди едят коров и птиц. Вампиры пьют людскую кровь. Значит, возможно, где-то существует и тот, кто питается кровью вампиров! Чью сторону займет это существо? Какая судьба ждет его в мире, разрываемом на части войной вампиров и людей? Кто станет ему другом, а кто - смертельным врагом?-Качество: BDRip (HQR)
Формат: MKV
Тип видео: Без хардсаба
Видео кодек: x264
Аудио кодек: AС3
Видео: x264 (Hi10p), ~ 2 500 Kbps, 1280x720, 23.976fps
Аудио #1: AC3, 448 Kbps, 48KHz, 6ch
Аудио #2: AC3, 448 Kbps, 48KHz, 6ch [Многоголосая, Mega-Anime]
Аудио #3: AC3, 128 Kbps, 48KHz, 2ch [Одноголосая, Azazel]

Список эпизодов


01. Flight Night (Ночной полёт)
02. Witch Hunt (Охота на ведьм)
03. The Star Of Sorrow I. City of Blood (Звезда Скорби I. Город крови)
04. The Star Of Sorrow II. Hunter's Banquet (Звезда Скорби II. Пир охотников)
05. Yesterday, Today and Tomorrow (Вчера, Сегодня, Завтра)
06. Sword Dancer (Танцующий с мечом)
07. Never Land (Нетландия)
08. Silent Noise (Беззвучный шум)
09. Overcount I. - The Belfry Of Downfall (Последний отсчёт. Часть 1. Колокольня, несущая смерть)
10. Overcount II. Lucifer's Choice (Последний отсчёт. Часть 2. Выбор Люцифера)
11. From the Empire (Из Империи)
12. The Iblis I. Evening Visitors (Иблис. Часть 1. Вечерние гости)
13. The Iblis II. Betrayal Blaze (Иблис. Часть 2. Пламя предательства)
14. The Ibils III. A Mark of Sinner (Иблис. Часть 3. Печать грешника)
15. The Night Lords I. The Return of Envoy (Повелители ночи. Часть 1. Возвращение посланника)
16. The Night Lords II. Twilight Of The Capital (Повелители ночи. Часть 2. Сумерки столицы)
17. The Night Lords III. The Island Of Her Darling Children (Повелители ночи. Часть 3. Остров её любимых детей)
18. The Night Lords IV. The Palace Of Jade (Повелители ночи. Часть 4. Нефритовый дворец)
19. The Night Lords V. A Start of Pilgrimage (Повелители ночи. Часть 5. Начало странствия)
20. The Throne of Roses I. Kingdom of the North (Трон из роз. Часть 1. Северное королевство)
21. The Throne of Roses II. The Refuge (Трон из роз. Часть 2. Пристанище)
22. The Throne of Roses III. Lord of Abyss (Трон из роз. Часть 3. Князь бездны)
23. The Crown of Thorns I. City in the Mist (Терновый венец. Часть 1. Город в тумане)
24. The Crown of Thorns II. (Терновый венец. Часть 2. Клятва)

MediaInfo

General
Unique ID : 228357431092479513070817271508924660424 (0xABCC0A9CE39102E98AA869D5B9787AC8)
Complete name : D:\Аниме\[HQR] Trinity Blood TV [BDRip 1280x720 h264 Hi10 ac3]\[HQR] Trinity Blood TV -01- (BDRip 1280x720 h264 Hi10 ac3).mkv
Format : Matroska
Format version : Version 2
File size : 511 MiB
Duration : 23mn 46s
Overall bit rate : 3 005 Kbps
Movie name : Trinity Blood [HQR]
Encoded date : UTC 2013-03-01 05:32:31
Writing application : mkvmerge v5.7.0 ('The Whirlwind') built on Jul 29 2012 15:12:35
Writing library : libebml v1.2.3 + libmatroska v1.3.0
Attachment : Yes / Yes / Yes / Yes / Yes / Yes
Video
ID : 1
Format : AVC
Format/Info : Advanced Video Codec
Format profile : High 10@L4.1
Format settings, CABAC : Yes
Format settings, ReFrames : 8 frames
Codec ID : V_MPEG4/ISO/AVC
Duration : 23mn 46s
Bit rate : 2 497 Kbps
Width : 1 280 pixels
Height : 720 pixels
Display aspect ratio : 16:9
Frame rate mode : Constant
Frame rate : 23.976 fps
Color space : YUV
Chroma subsampling : 4:2:0
Bit depth : 10 bits
Scan type : Progressive
Bits/(Pixel*Frame) : 0.113
Stream size : 425 MiB (83%)
Title : [HQR] 01.Flight Night
Writing library : x264 core 129 r2230 1cffe9f
Encoding settings : cabac=1 / ref=8 / deblock=1:-3:-3 / analyse=0x3:0x133 / me=umh / subme=9 / psy=1 / psy_rd=0.85:0.00 / mixed_ref=1 / me_range=24 / chroma_me=1 / trellis=2 / 8x8dct=1 / cqm=0 / deadzone=21,11 / fast_pskip=1 / chroma_qp_offset=-2 / threads=4 / lookahead_threads=1 / sliced_threads=0 / nr=0 / decimate=0 / interlaced=0 / bluray_compat=0 / constrained_intra=0 / bframes=9 / b_pyramid=2 / b_adapt=2 / b_bias=0 / direct=3 / weightb=1 / open_gop=0 / weightp=2 / keyint=240 / keyint_min=24 / scenecut=40 / intra_refresh=0 / rc_lookahead=40 / rc=crf / mbtree=0 / crf=16.0 / qcomp=0.75 / qpmin=0 / qpmax=35 / qpstep=4 / vbv_maxrate=40000 / vbv_bufsize=62500 / crf_max=0.0 / nal_hrd=none / ip_ratio=1.40 / pb_ratio=1.30 / aq=1:0.75
Default : Yes
Forced : No
Color primaries : BT.709
Transfer characteristics : BT.709
Matrix coefficients : BT.709
Audio
ID : 2
Format : AC-3
Format/Info : Audio Coding 3
Mode extension : CM (complete main)
Format settings, Endianness : Big
Codec ID : A_AC3
Duration : 23mn 46s
Bit rate mode : Constant
Bit rate : 448 Kbps
Channel(s) : 6 channels
Channel positions : Front: L C R, Side: L R, LFE
Sampling rate : 48.0 KHz
Bit depth : 16 bits
Compression mode : Lossy
Stream size : 76.2 MiB (15%)
Title : Original 5.1 AC-3
Language : Japanese
Default : Yes
Forced : No
Text
ID : 3
Format : ASS
Codec ID : S_TEXT/ASS
Codec ID/Info : Advanced Sub Station Alpha
Compression mode : Lossless
Title : Асни, Witwood [TASIW] (Untranslated)
Language : Russian
Default : Yes
Forced : No

[Цитировать]



Показать сообщения:    

Текущее время: 09-Дек 22:29

Часовой пояс: UTC + 3


Вы не можете начинать темы
Вы не можете отвечать на сообщения
Вы не можете редактировать свои сообщения
Вы не можете удалять свои сообщения
Вы не можете голосовать в опросах
Вы не можете прикреплять файлы к сообщениям
Вы не можете скачивать файлы

!ВНИМАНИЕ!
Сайт не предоставляет электронные версии произведений, а занимается лишь коллекционированием и каталогизацией ссылок, присылаемых и публикуемых на форуме нашими читателями. Если вы являетесь правообладателем какого-либо представленного материала и не желаете, чтобы ссылка на него находилась в нашем каталоге, свяжитесь с нами, и мы незамедлительно удалим ее. Файлы для обмена на трекере предоставлены пользователями сайта, и администрация не несет ответственности за их содержание. Просьба не заливать файлы, защищенные авторскими правами, а также файлы нелегального содержания!