[ Сегодня идет свободное скачивание без начисления Download ]


Статистика раздачи
Нет
 
   
 
Top  
 
 
-(Не)жданный принц / Un prince (presque) charmant (2013) DVDRip- Год выпуска: 2013
Производство: Франция, EuropaCorp, TF1 Films Production, Canal+
Жанр: Комедия, Мелодрама
Перевод: Дублированный [Лицензия]
Субтитры: Нет.
Дата мировой премьеры: 9 января 2013
Дата российской премьеры: 25 апреля 2013, «Bazelevs Distribution», «All Media»
Дата выхода DVD релиза: 13 августа 2013, «Флагман-Трейд»
Режиссер: Филипп Леллуш
Продюсер: Люк Бессон
Актеры: Венсан Перес, Ваина Джоканте, Жером Киршер, Хлоя Куллу, Жак Вебер, Николь Кальфан, Мусса Мааскри, Коме Левин, Жюдит Сибони, Пьер Лаплейс
Описание фильма:
Разведенный карьерист и циник Жан-Марк не остановится ни перед чем для достижения своих целей. За подготовкой крупного контракта он едва не пропускает свадьбу собственной дочери и лишь за два дня до торжества собирается в путь. Дорога обернется для героя встречей с его полной противоположностью, романтичной и бескорыстной девушкой Мари, которая, вопреки духу времени, мечтает о принце на белом коне…
Продолжительность: 01:23:02
Качество видео: DVDRip
Видеокодек: XviD
Формат: AVI
Видео: 688x288 (2.40:1), 25.000 fps, XviD 65 ~1118 kbps avg, 0.226 bit/pixel
Аудио: 48 kHz, MPEG Layer 3, 2 ch, 128.00 kbps

MediaInfo:

General
Complete name : C:\(Не)жданный принц Un prince (presque) charmant (2013).avi
Format : AVI
Format/Info : Audio Video Interleave
File size : 746 MiB
Duration : 1h 23mn
Overall bit rate : 1 256 Kbps
Writing application : VirtualDubMod 1.5.10.3 | (build 2550/release)
Writing library : VirtualDubMod build 2550/release
Video
ID : 0
Format : MPEG-4 Visual
Format profile : Advanced [email protected]
Format settings, BVOP : Yes
Format settings, QPel : No
Format settings, GMC : No warppoints
Format settings, Matrix : Custom
Codec ID : XVID
Codec ID/Hint : XviD
Duration : 1h 23mn
Bit rate : 1 118 Kbps
Width : 688 pixels
Height : 288 pixels
Display aspect ratio : 2.40:1
Frame rate : 25.000 fps
Color space : YUV
Chroma subsampling : 4:2:0
Bit depth : 8 bits
Scan type : Progressive
Compression mode : Lossy
Bits/(Pixel*Frame) : 0.226
Stream size : 664 MiB (89%)
Writing library : XviD 65
Audio
ID : 1
Format : MPEG Audio
Format version : Version 1
Format profile : Layer 3
Codec ID : 55
Codec ID/Hint : MP3
Duration : 1h 23mn
Bit rate mode : Constant
Bit rate : 128 Kbps
Channel count : 2 channels
Sampling rate : 48.0 KHz
Compression mode : Lossy
Stream size : 76.0 MiB (10%)
Alignment : Aligned on interleaves
Interleave, duration : 40 ms (1.00 video frame)
Interleave, preload duration : 504 ms
Writing library : LAME3.99r
Encoding settings : -m s -V 4 -q 2 -lowpass 17 -b 128
Скриншоты:
[th]http://img.torrentsclub.org/di/VUE9/95f61c0ccdd6bb8...991a2bf.png[/th] [th]http://img.torrentsclub.org/di/JVGO/595b606cab3fc35...7aeccb1.png[/th] [th]http://img.torrentsclub.org/di/2I34/e295beea2d17485...c05600b.png[/th]
Приятного просмотра!Время раздачи: (24/7 - круглосуточно)

[Цитировать]



Показать сообщения:    

Текущее время: 05-Дек 17:36

Часовой пояс: UTC + 3


Вы не можете начинать темы
Вы не можете отвечать на сообщения
Вы не можете редактировать свои сообщения
Вы не можете удалять свои сообщения
Вы не можете голосовать в опросах
Вы не можете прикреплять файлы к сообщениям
Вы не можете скачивать файлы

!ВНИМАНИЕ!
Сайт не предоставляет электронные версии произведений, а занимается лишь коллекционированием и каталогизацией ссылок, присылаемых и публикуемых на форуме нашими читателями. Если вы являетесь правообладателем какого-либо представленного материала и не желаете, чтобы ссылка на него находилась в нашем каталоге, свяжитесь с нами, и мы незамедлительно удалим ее. Файлы для обмена на трекере предоставлены пользователями сайта, и администрация не несет ответственности за их содержание. Просьба не заливать файлы, защищенные авторскими правами, а также файлы нелегального содержания!