[ Сегодня идет свободное скачивание без начисления Download ]


Статистика раздачи
Нет
 
   
 
 
 
- Год выпуска: 2010
Страна: Япония
Жанр: мистика, комедия, драма
Продолжительность: 13 эп. по 25 мин.
Выпуск: c 03.04.2010 по 26.06.2010-Перевод:
  • русские субтитры от Antravoco [TV]
    перевод, редактура: Advokat, Kekcelt

  • русские субтитры от Hollow & Obelikx [Specials]
-Режиссер: Киси Сэйдзи
Студия: P.A. Works-Описание:
Не зря говорят, что японская школьная система – самая тяжелая и суровая. Ибо очнулся парень по фамилии Отонаси (имя он забыл) на том свете – а там снова школа! Вот только, несмотря на красивую обертку, школа эта больше походит на исправительную колонию для тех, кто слишком рано покинул бренный мир и не успел (или не захотел) познать правила и законы «реального общества». То есть, покрутится в ней юный воспитуемый, научится ходить строем и участвовать во внеклассных мероприятиях согласно плану – и пора отправляться на этап согласно накопленной карме. Только почему-то не всем воспитуемым это нравится…
Самые разные школьники, решившие не исчезать, а разобраться, за что и от кого получили «новый срок», неформально объединились, создав «Фронт загробного мира» под командой волевой и практичной Юри. Их цель – получить ответы, их жизнь – отрицание навязанных правил, а средства достижения цели – вечная борьба с администрацией и «хозяйкой» школы по имени Тэнси (ангел). Вот в такую отрицательную компанию влился Отонаси - главный герой поневоле. Теперь парню гарантированы веселая жизнь, верные друзья и абонемент на концерты лучшей местной группы «Мертвые девушки и Чудо-Юдо». То ли еще будет!
© Hollow, World Art-Информационные ссылки: AniDB || World Art || MAL-Качество: BDRip
Энкод: Yousei-raws | #yousei-raws@irc. rizon. net
Тип видео: без хардсаба
Формат: mkv
Видео: x264 (Hi10p), 1280x720, ~3000 Kbps, 23.976 fps
Аудио JAP: Vorbis, 48000Hz, ~256 Kbps, 2ch
Аудио RUS 1,2,6: AAC/AC3, 48000Hz, ~192 Kbps, 2ch (внешними файлами)
Аудио RUS 3: Vorbis, 48000Hz, ~200 Kbps, 2ch (внешними файлами)
Аудио RUS 4: AAC, 44100Hz, ~256 Kbps, 2ch (внешними файлами)
Аудио RUS 5: AC3, 48000Hz, ~256 Kbps, 2ch (внешними файлами)
-

Список озвучек в раздаче

  • одноголосая (жен.) от Persona99 (GetSmart)
  • одноголосая (муж.) от OSLIKt (AniDub)
  • двухголосая (муж./жен.) от Scrap & Kedra (RG Genshiken) + вспомогательные субтитры
  • двухголосая (муж./жен.) от Lupin & Say (Animedia)
  • двухголосая (муж./жен.) от DJATOM & comina (Opendub) [1-5]
  • двухголосая (муж./жен.) от S@thal & Alice (TF-Anigroup) [1-5]

Список эпизодов

01. Departure
02. Guild
03. My Song
04. Day Game
05. Favorite Flavor
06. Family Affair
07. Alive
08. Dancer in the Dark
09. In Your Memory
10. Goodbye Days
11. Change the World
12. Knockin` on Heaven`s Door
13. Graduation
S1. Another Epilogue
S2. Stairway to Heaven

Подробные тех. данные

Общее
Уникальный идентификатор : 205657244499973873433637598636010252215 (0x9AB82500FBF02B9C865673DB456E27B7)
Полное имя : W:\Anime\720p\Angel Beats [BD] [720p]\[Yousei-raws] Angel Beats! 08 [BDrip 1280x720 x264 Vorbis].mkv
Формат : Matroska
Версия формата : Version 2
Размер файла : 564 Мбайт
Продолжительность : 24 м.
Режим общего битрейта : Переменный
Общий поток : 3195 Кбит/сек
Дата кодирования : UTC 2012-07-14 19:54:48
Программа кодирования : mkvmerge v2.9.7 ('Tenderness') built on Jul 1 2009 18:43:35
Библиотека кодирования : libebml v0.7.7 + libmatroska v0.8.1
Видео
Идентификатор : 1
Формат : AVC
Формат/Информация : Advanced Video Codec
Профиль формата : High 10@L4.1
Параметр CABAC формата : Да
Параметр ReFrames формата : 9 кадров
Идентификатор кодека : V_MPEG4/ISO/AVC
Продолжительность : 24 м.
Битрейт : 2875 Кбит/сек
Ширина : 1280 пикселей
Высота : 720 пикселей
Соотношение сторон : 16:9
Режим частоты кадров : Постоянный
Частота кадров : 23,976 кадра/сек
Цветовое пространство : YUV
Субдискретизация насыщенности : 4:2:0
Битовая глубина : 10 бит
Тип развёртки : Прогрессивная
Бит/(Пиксели*Кадры) : 0.130
Размер потока : 508 Мбайт (90%)
Библиотека кодирования : x264 core 125 r2200 999b753
Настройки программы : cabac=1 / ref=9 / deblock=1:-2:-2 / analyse=0x3:0x133 / me=umh / subme=9 / psy=1 / psy_rd=0.90:0.00 / mixed_ref=1 / me_range=24 / chroma_me=1 / trellis=2 / 8x8dct=1 / cqm=0 / deadzone=21,11 / fast_pskip=1 / chroma_qp_offset=-2 / threads=6 / lookahead_threads=1 / sliced_threads=0 / nr=0 / decimate=0 / interlaced=0 / bluray_compat=0 / constrained_intra=0 / bframes=8 / b_pyramid=2 / b_adapt=2 / b_bias=0 / direct=1 / weightb=1 / open_gop=0 / weightp=2 / keyint=250 / keyint_min=23 / scenecut=40 / intra_refresh=0 / rc=crf / mbtree=0 / crf=15.6 / qcomp=0.70 / qpmin=9 / qpmax=40 / qpstep=4 / ip_ratio=1.40 / pb_ratio=1.30 / aq=1:0.90
Default : Да
Forced : Нет
Аудио
Идентификатор : 2
Формат : Vorbis
Параметр Floor формата : 1
Идентификатор кодека : A_VORBIS
Продолжительность : 24 м.
Вид битрейта : Переменный
Битрейт : 256 Кбит/сек
Каналы : 2 канала
Частота : 48,0 КГц
Метод сжатия : С потерями
Размер потока : 45,2 Мбайт (8%)
Библиотека кодирования : libVorbis (Schaufenugget) (20101101 (Schaufenugget))
Язык : Japanese
Default : Да
Forced : Нет

[Цитировать]



Показать сообщения:    

Текущее время: 11-Дек 13:04

Часовой пояс: UTC + 3


Вы не можете начинать темы
Вы не можете отвечать на сообщения
Вы не можете редактировать свои сообщения
Вы не можете удалять свои сообщения
Вы не можете голосовать в опросах
Вы не можете прикреплять файлы к сообщениям
Вы не можете скачивать файлы

!ВНИМАНИЕ!
Сайт не предоставляет электронные версии произведений, а занимается лишь коллекционированием и каталогизацией ссылок, присылаемых и публикуемых на форуме нашими читателями. Если вы являетесь правообладателем какого-либо представленного материала и не желаете, чтобы ссылка на него находилась в нашем каталоге, свяжитесь с нами, и мы незамедлительно удалим ее. Файлы для обмена на трекере предоставлены пользователями сайта, и администрация не несет ответственности за их содержание. Просьба не заливать файлы, защищенные авторскими правами, а также файлы нелегального содержания!