[ Сегодня идет свободное скачивание без начисления Download ]


Статистика раздачи
Нет
 
   
 
 
 
- Год выпуска: 2012
Страна: Япония
Жанр: ужасы, мистика, школа
Продолжительность: 12 эп. по 24 мин.
Выпуск: c 10.01.2012 по 27.03.2012-Перевод:
  • русские субтитры от Hollow & Obelikx (полные/вспомогательные)
-Режиссер: Мидзусима Цутому
Студия: P.A. Works-Описание:
14-летний Коити Сакакибара – не хулиган, не спортсмен и не красавец. Мать его рано умерла, отец пропадал в экспедициях, без родительского пригляда парень получил болезнь легких и стал чахнуть в загазованном Токио. Выход нашелся простой и испытанный – переезд к родне матери в сельский городок Ёмияма. В глубинке нравы простые, не зря тетушка Рэйко просвещала племянника, что в новой школе нельзя высовываться, отрываться от коллектива, короче, надо быть как все. Застенчивый и спокойный Коити другого и не желал, но даже так быстро почувствовал, что обстановка в его девятом «В» классе странная, давящая и нездоровая…
Четверть века назад в той же школе в том же классе училась Мисаки, яркая и способная девочка. Она погибла, причем подробности до сих пор покрыты мраком. Но почему-то после трагедии одноклассники заявили, что Мисаки не мертва, а по-прежнему рядом с ними, даже директор отвел ей место на церемонии выпуска. Только ученики Северной школы (то есть, весь город) знают, почему с тех пор в 9-м «В» каждый год последнее место левого ряда остается незанятым, и что нужно делать, чтобы окончить этот класс живым. Но Коити-то чужак и этого не знал, а все вокруг почему-то уверены, что он держит ключ к тайне! А что им еще думать, если столичный гость первым взял и открыто заговорил с тихой девочкой с повязкой на глазу по имени… Мэй Мисаки!
© Hollow, World Art-Информационные ссылки: AniDB || World Art || MAL-Качество: BDRip
Энкод: Yousei-raws | #yousei-raws@irc. rizon. net
Тип видео: без хардсаба
Формат: mkv
Видео: x264 (Hi10p), 1280x720, ~2700 Kbps, 23.976 fps
Аудио JAP: Vorbis, 48000 Hz, ~256 Kbps, 2ch
Аудио RUS 1-4: AAC/MP3/AC3, 48000 Hz, ~160-192 Kbps, 2ch (внешними файлами)
Аудио RUS 4-8: AAC/MP3/AC3, 48000 Hz, ~160-192 Kbps, 2ch (внешними файлами)
Аудио RUS 9-12: AAC/MP3/AC3, 48000 Hz, ~160-192 Kbps, 2ch (внешними файлами)
Аудио RUS 13: AAC/MP3/AC3, 48000 Hz, ~160-192 Kbps, 2ch (внешними файлами)-

Список озвучек в раздаче

  • одноголосая (жен.) от Persona99 (GetSmart)
  • одноголосая (жен.) от Trina_D (AniDub)
  • двухголосая (муж./жен.) от Mangaka & Ms_Наташа (Anything-group)
  • двухголосая (муж./жен.) от Shachiburi & Silv (Animedia)
  • двухголосая (муж./жен.) от MIKS & comina (Opendub)
  • двухголосая (муж./жен.) от BalFor & Viki (SHIZA)
  • двухголосая (муж./жен.) от DemonOFmooN & Lali (Anifilm)
  • двухголосая (жен./муж.) от KroshkaRu & MifSnaiper (SeM & Co)
  • двухголосая (муж./жен.) от loster01 & Emeri (Anipower)
  • двухголосая (муж./жен.) от Rezan & Ivaniska (WiaDub)
  • двухголосая (муж./жен.) от Scrap & Kasumi (RG Kujian)
  • многоголосая от Gezell Studio
  • многоголосая от AnimeSpace Team
    (участники: DAKJE, Phobia, Monset, ZoIIaN, Molibden, He6o, Zlo, Letty, DimanRapper, exnk, AgRo, Mikaeru)

Список эпизодов

01. Rough Sketch
02. Blueprint
03. Bone Work
04. Put Flesh
05. Build Limbs
06. Face to Face
07. Sphere Join
08. Hair Stand
09. Body Paint
10. Glass Eye
11. Makeup
12. Stand By Oneself

Подробные тех. данные

Общее
Уникальный идентификатор : 172557232571158161413607643490928000764 (0x81D1506B0429DDDAACF5E41DFFCB7EFC)
Полное имя : W:\Anime\720p\Another [BD] [720p]\[Yousei-raws] Another 02 [BDrip 1280x720 x264 Vorbis].mkv
Формат : Matroska
Версия формата : Version 2
Размер файла : 447 Мбайт
Продолжительность : 24 м.
Режим общего битрейта : Переменный
Общий поток : 2533 Кбит/сек
Дата кодирования : UTC 2012-04-03 12:38:08
Программа кодирования : mkvmerge v2.9.7 ('Tenderness') built on Jul 1 2009 18:43:35
Библиотека кодирования : libebml v0.7.7 + libmatroska v0.8.1
Видео
Идентификатор : 1
Формат : AVC
Формат/Информация : Advanced Video Codec
Профиль формата : High 10@L4.1
Параметр CABAC формата : Да
Параметр ReFrames формата : 9 кадров
Идентификатор кодека : V_MPEG4/ISO/AVC
Продолжительность : 24 м.
Битрейт : 2227 Кбит/сек
Ширина : 1280 пикселей
Высота : 720 пикселей
Соотношение сторон : 16:9
Режим частоты кадров : Постоянный
Частота кадров : 23,976 кадра/сек
Цветовое пространство : YUV
Субдискретизация насыщенности : 4:2:0
Битовая глубина : 10 бит
Тип развёртки : Прогрессивная
Бит/(Пиксели*Кадры) : 0.101
Размер потока : 393 Мбайт (88%)
Библиотека кодирования : x264 core 120 r2164 da19765
Настройки программы : cabac=1 / ref=9 / deblock=1:-2:-2 / analyse=0x3:0x133 / me=umh / subme=9 / psy=1 / psy_rd=0.90:0.00 / mixed_ref=1 / me_range=24 / chroma_me=1 / trellis=2 / 8x8dct=1 / cqm=0 / deadzone=21,11 / fast_pskip=1 / chroma_qp_offset=-2 / threads=6 / sliced_threads=0 / nr=0 / decimate=0 / interlaced=0 / bluray_compat=0 / constrained_intra=0 / bframes=8 / b_pyramid=2 / b_adapt=2 / b_bias=0 / direct=1 / weightb=1 / open_gop=0 / weightp=2 / keyint=250 / keyint_min=23 / scenecut=40 / intra_refresh=0 / rc=crf / mbtree=0 / crf=15.5 / qcomp=0.70 / qpmin=9 / qpmax=38 / qpstep=4 / ip_ratio=1.40 / pb_ratio=1.30 / aq=1:0.90 / zones=985,3428,b=1.4
Default : Да
Forced : Нет
Аудио
Идентификатор : 2
Формат : Vorbis
Параметр Floor формата : 1
Идентификатор кодека : A_VORBIS
Продолжительность : 24 м.
Вид битрейта : Переменный
Битрейт : 256 Кбит/сек
Каналы : 2 канала
Частота : 48,0 КГц
Метод сжатия : С потерями
Размер потока : 45,2 Мбайт (10%)
Библиотека кодирования : libVorbis (Schaufenugget) (20101101 (Schaufenugget))
Язык : Japanese
Default : Да
Forced : Нет

[Цитировать]



Показать сообщения:    

Текущее время: 10-Дек 08:02

Часовой пояс: UTC + 3


Вы не можете начинать темы
Вы не можете отвечать на сообщения
Вы не можете редактировать свои сообщения
Вы не можете удалять свои сообщения
Вы не можете голосовать в опросах
Вы не можете прикреплять файлы к сообщениям
Вы не можете скачивать файлы

!ВНИМАНИЕ!
Сайт не предоставляет электронные версии произведений, а занимается лишь коллекционированием и каталогизацией ссылок, присылаемых и публикуемых на форуме нашими читателями. Если вы являетесь правообладателем какого-либо представленного материала и не желаете, чтобы ссылка на него находилась в нашем каталоге, свяжитесь с нами, и мы незамедлительно удалим ее. Файлы для обмена на трекере предоставлены пользователями сайта, и администрация не несет ответственности за их содержание. Просьба не заливать файлы, защищенные авторскими правами, а также файлы нелегального содержания!