[ Сегодня идет свободное скачивание без начисления Download ]


Статистика раздачи
Нет
 
   
 
 
 
- Год выпуска: 2012
Страна: Япония
Жанр: комедия, романтика, мистика
Продолжительность: 12 эп. по 25 мин.-Перевод:
  • русские субтитры от Dreamers Team (полные/вспомогательные)
    переводчик: Hige-san, редакторы: Mika, Kermit, перевод песен: AlenFuns
-Режиссер: Омата Синъити
Студия: Studio DEEN-Описание:
16-летний Тихиро Фуруя – сын буддистского священника и потому куда проще относится к сверхъестественному. Возможно, из-за ранней смерти матери парень с детства одержим темой зомби, возвращения из мертвых. Фуруя коллекционирует фильмы, мангу, фигурки и даже мечтает жить с… ну, вы поняли. Впрочем, одноклассники считают Тихиро суровым неформалом, а кузина Ранко находит его увлечение весьма романтичным. Вот только нелепая гибель домашнего кота надломила героя, и он решил оживить любимца тайным зельем из древнего манускрипта. Но это в кино все просто, а в честном аниме юному некроманту надо тренироваться, что он и делает по ночам в заброшенном доме. И вот однажды начинающему чернокнижнику послышался женский крик…
Крик шел от колодца во дворе и, присмотревшись, Фуруя узнал местную знаменитость – Рэа, первую красавицу и дочь директора женской академии Санка. Тихиро, как честный парень, не стал таиться, и вскоре ребята разговорились. Оказалось, Рэа иногда приходит в «проклятый дом», чтобы выкричать и выплакать грусть-тоску «девушки из высшего общества». Матери у нее тоже нет, а деспотичный отец контролирует каждый шаг дочери, делая ее жизнь невыносимой. Санка часто задумывалась о смерти как избавлении от кошмара, потому занятия Тихиро вызвали у нее не ужас, а неподдельный интерес. В итоге лукавая судьба дала молодым людям то, чего они хотели… или нет? Пускай теперь сами разбираются!
© Hollow, World Art-Информационные ссылки: AniDB || World Art || MAL-Качество: BDRip
Энкод: Yousei-raws | [email protected] rizon. net
Тип видео: без хардсаба
Формат: mkv
Видео: x264 (Hi10p), 1280x720, ~2600 Kbps, 23.976 fps
Аудио JAP: Vorbis, 48000Hz, ~256 Kbps, 2ch
Аудио RUS 1-10: AC3/AAC, 48000Hz, ~192 Kbps, 2ch (внешними файлами)-

Список озвучек в раздаче

  • одноголосая (муж.) от Ryc99[1-12]
  • двухголосая (жен./муж.) от Eladiel & Zendos / Ray (Anilibria)
  • двухголосая (муж./жен.) от Animan & JuliaBlack (Animedia)[1-12]
  • двухголосая (муж./жен.) от DemonOFmooN и MezIdA (Anifilm)
  • двухголосая (муж./жен.) от Faraway & Viki (SHIZA)
  • двухголосая (муж./жен.) от Flame & KroshkaRu (Opendub & SeM)[1-12]
  • двухголосая (муж./жен.) от Kasperok69 & Miori (WiaDub)[1-12]
  • двухголосая (муж./жен.) от Keita & Trina_D (AniDub)
  • двухголосая (муж./жен.) от loster01 & Emeri (Anipower/LE-Production)
  • двухголосая (муж./жен.) от MICHI & Moonslayer[1-12]

Список эпизодов

01. If I... Became... a Zombie
02. I Was... Successful
03. Sanka... Rea
04. A Normal... Girl...
05. Being a Zombie... Means...
06. Because I... Met You
07. Childhood... Friend...
08. Fabricated... Freedom...
09. Mothers... Hand...
10. Strong... Feelings...
11. I`m not... Special... or Something
12. At That Moment... I...
SP. I am... a Zombie, too...

Подробные тех. данные

Общее
Уникальный идентификатор : 195935777958928613485176524676446572472 (0x9367DBB2A76096CDAAB4E9724F444FB8)
Полное имя : W:\ANIMATION\720p\Sankarea [BD] [720p]\[Yousei-raws] Sankarea 01 [BDrip 1280x720 x264 Vorbis].mkv
Формат : Matroska
Версия формата : Version 2
Размер файла : 495 Мбайт
Продолжительность : 24 м.
Режим общего битрейта : Переменный
Общий поток : 2858 Кбит/сек
Дата кодирования : UTC 2012-07-06 18:04:11
Программа кодирования : mkvmerge v2.9.7 ('Tenderness') built on Jul 1 2009 18:43:35
Библиотека кодирования : libebml v0.7.7 + libmatroska v0.8.1
Видео
Идентификатор : 1
Формат : AVC
Формат/Информация : Advanced Video Codec
Профиль формата : High [email protected]
Параметр CABAC формата : Да
Параметр ReFrames формата : 9 кадров
Идентификатор кодека : V_MPEG4/ISO/AVC
Продолжительность : 24 м.
Битрейт : 2545 Кбит/сек
Ширина : 1280 пикселей
Высота : 720 пикселей
Соотношение сторон : 16:9
Режим частоты кадров : Постоянный
Частота кадров : 23,976 кадра/сек
Цветовое пространство : YUV
Субдискретизация насыщенности : 4:2:0
Битовая глубина : 10 бит
Тип развёртки : Прогрессивная
Бит/(Пиксели*Кадры) : 0.115
Размер потока : 440 Мбайт (89%)
Библиотека кодирования : x264 core 125 r2200 999b753
Настройки программы : cabac=1 / ref=9 / deblock=1:-2:-2 / analyse=0x3:0x133 / me=umh / subme=9 / psy=1 / psy_rd=0.90:0.00 / mixed_ref=1 / me_range=24 / chroma_me=1 / trellis=2 / 8x8dct=1 / cqm=0 / deadzone=21,11 / fast_pskip=1 / chroma_qp_offset=-2 / threads=6 / lookahead_threads=1 / sliced_threads=0 / nr=0 / decimate=0 / interlaced=0 / bluray_compat=0 / constrained_intra=0 / bframes=8 / b_pyramid=2 / b_adapt=2 / b_bias=0 / direct=1 / weightb=1 / open_gop=0 / weightp=2 / keyint=250 / keyint_min=23 / scenecut=40 / intra_refresh=0 / rc=crf / mbtree=0 / crf=15.7 / qcomp=0.70 / qpmin=9 / qpmax=42 / qpstep=4 / ip_ratio=1.40 / pb_ratio=1.30 / aq=1:0.90
Default : Да
Forced : Нет
Аудио
Идентификатор : 2
Формат : Vorbis
Параметр Floor формата : 1
Идентификатор кодека : A_VORBIS
Продолжительность : 24 м.
Вид битрейта : Переменный
Битрейт : 256 Кбит/сек
Каналы : 2 канала
Частота : 48,0 КГц
Метод сжатия : С потерями
Размер потока : 44,3 Мбайт (9%)
Библиотека кодирования : libVorbis (Schaufenugget) (20101101 (Schaufenugget))
Язык : Japanese
Default : Да
Forced : Нет

[Цитировать]



Показать сообщения:    

Текущее время: 05-Дек 21:32

Часовой пояс: UTC + 3


Вы не можете начинать темы
Вы не можете отвечать на сообщения
Вы не можете редактировать свои сообщения
Вы не можете удалять свои сообщения
Вы не можете голосовать в опросах
Вы не можете прикреплять файлы к сообщениям
Вы не можете скачивать файлы

!ВНИМАНИЕ!
Сайт не предоставляет электронные версии произведений, а занимается лишь коллекционированием и каталогизацией ссылок, присылаемых и публикуемых на форуме нашими читателями. Если вы являетесь правообладателем какого-либо представленного материала и не желаете, чтобы ссылка на него находилась в нашем каталоге, свяжитесь с нами, и мы незамедлительно удалим ее. Файлы для обмена на трекере предоставлены пользователями сайта, и администрация не несет ответственности за их содержание. Просьба не заливать файлы, защищенные авторскими правами, а также файлы нелегального содержания!