[ Сегодня идет свободное скачивание без начисления Download ]


Статистика раздачи
Нет
 
   
 
Top  
 
 
- Неzлоб (2013) SATRip [Обновляемая] - Режиссер / Телекомпания: ТНТ
Русское название: Неzлоб
Год выпуска: 2013
Жанр: Ситком, комедия
Выпущено: Comedy Club Production
Описание:
«Неzлоб» - ситком Александра Незлобина о реальной жизни Александра Незлобина с Александром Незлобиным в главной роли.
Кажется, что у Саши Незлобина есть все: любимое дело, внимание девушек, праворукий джип, веселые тусовки, а его стендапы показывают по телевизору. Но на самом деле это обычный 30-летний парень из Ё-бурга, который любит поесть, поспать и вообще живет с мамой. Он бегает по району от кредиторов и ревнивых мужей своих подруг, страдает из-за любви и друзей-авантюристов. У него есть два комплекса - полнота и отношения с девушками, о которых он рассказывает в своих стендапах.
В ситкоме снялись реальные друзья Александра, его мама, экс-генеральный директор ТНТ Роман Петренко, генеральный продюсер ТНТ Александр Дулерайн, основатель Comedy Club Production Артур Джанибекян, директор программного департамента ТНТ Владимир Воронов, а также много попавшихся под руку людей, которые никогда не собирались играть в кино, - вроде продавщицы хот-догов, лифтера и т.д.
Режиссер: Григорий Федоров, Всеволод Бродский
Актеры: Александр Незлобин, Анатолий Бурносов, Иван Охлобыстин, Сергей Светлаков, Кристина Асмус, Павел Воля, Гавриил Гордеев, группа USB и другие.
Продолжительность: Каждая серия ~ 00:25:00
Видеокодек: XVID
Битрейт видео: ~1628 kb/s
Размер кадра: 720 x 400
Качество видео: SATRip
Аудиокодек: MP3, 1ch./2ch.
Битрейт аудио: 128 kb/s

MediaInfo

Формат : AVI
Формат/Информация : Audio Video Interleave
Размер файла : 310 Мбайт
Продолжительность : 24 м.
Общий поток : 1766 Кбит/сек
Библиотека кодирования : VirtualDub build 34807/release
Видео
Идентификатор : 0
Формат : MPEG-4 Visual
Профиль формата : Advanced Simple@L5
Параметр BVOP формата : 2
Параметр QPel формата : Нет
Параметр GMC формата : Без точки перехода
Параметр матрицы формата : Default (H.263)
Режим смешивания : Сжатый битовый поток
Идентификатор кодека : XVID
Идентификатор кодека/Подсказка : XviD
Продолжительность : 24 м.
Битрейт : 1628 Кбит/сек
Ширина : 720 пикселей
Высота : 400 пикселей
Соотношение сторон : 16:9
Частота кадров : 25,000 кадров/сек
Цветовое пространство : YUV
Субдискретизация насыщенности : 4:2:0
Битовая глубина : 8 бит
Тип развёртки : Прогрессивная
Метод сжатия : С потерями
Бит/(Пиксели*Кадры) : 0.226
Размер потока : 285 Мбайт (92%)
Библиотека кодирования : XviD 64
Аудио
Идентификатор : 1
Формат : MPEG Audio
Версия формата : Version 1
Профиль формата : Layer 3
Режим : Joint stereo
Расширение режима : MS Stereo
Идентификатор кодека : 55
Идентификатор кодека/Подсказка : MP3
Продолжительность : 24 м.
Вид битрейта : Постоянный
Битрейт : 128 Кбит/сек
Каналы : 2 канала
Частота : 48,0 КГц
Метод сжатия : С потерями
Размер потока : 22,4 Мбайт (7%)
Выравнивание : Разделение по промежуткам
Продолжительность промежутка : 40 мс. (1,00 видеокадр)
Время предзагрузки промежутка : 500 мс.

Внимание! Раздача ведётся путём добавления новых серий

Внимание! Раздача ведётся путём добавления новых серий; при каждом добавлении создаётся новый торрент.
Чтобы начать докачку новой серии, пользователям необходимо сделать следующее:
1. Остановить скачивание;
2. Удалить старый торрент у себя из клиента (старые серии удалять не надо);
3. Скачать новый торрент и запустить его у себя в клиенте вместо старого, при этом указать клиенту путь в старую папку куда и должно происходить скачивание новых серий. Ваш клиент при этом должен произвести хеширование (проверку) старой папки и будет докачивать только те серии, которых у вас ещё нет. Старые серии при этом не удаляются, а продолжают раздаваться! Eсли вы уже удалили старые серии, то предотвратить повторную закачку старых серий можно, отжав галочку в соответствующих местах при запуске нового торрента.

Скриншоты

[Цитировать]



Показать сообщения:    

Текущее время: 07-Дек 19:30

Часовой пояс: UTC + 3


Вы не можете начинать темы
Вы не можете отвечать на сообщения
Вы не можете редактировать свои сообщения
Вы не можете удалять свои сообщения
Вы не можете голосовать в опросах
Вы не можете прикреплять файлы к сообщениям
Вы не можете скачивать файлы

!ВНИМАНИЕ!
Сайт не предоставляет электронные версии произведений, а занимается лишь коллекционированием и каталогизацией ссылок, присылаемых и публикуемых на форуме нашими читателями. Если вы являетесь правообладателем какого-либо представленного материала и не желаете, чтобы ссылка на него находилась в нашем каталоге, свяжитесь с нами, и мы незамедлительно удалим ее. Файлы для обмена на трекере предоставлены пользователями сайта, и администрация не несет ответственности за их содержание. Просьба не заливать файлы, защищенные авторскими правами, а также файлы нелегального содержания!