[ Сегодня идет свободное скачивание без начисления Download ]


Статистика раздачи
Нет
 
   
 
Top  
 
 
-Трефовая Дама / Dame de trefle (2013) HDTVRip- Год выпуска: 2013
Жанр: Триллер, Детектив
Производство: Франция
Описание фильма:
Полиция находит раненную молодую женщину, всю в крови. Прежде чем потерять сознание, она просит спасателя прийти на помощь своим детям. Откладывая свои личные проблемы, детектив Мартен вступает в преследование человека, который хочет убить детей.
Дата мировой премьеры: 11 января 2013
Режиссер: Филипп Вено
Актеры: Тьерри Годар, Чарли Фуке, Жан-Бернар Туссен, Софи-Шарлотта Хассон, Валери Декоберт-Корецки
Продолжительность: 01:30:38
Качество видео: HDTVRip
Перевод: Профессиональный (двухголосый закадровый)
Видеокодек: Xvid
Битрейт видео: ~1975 kbps
Размер кадра: 720x400
Аудиокодек: AC3 2.0
Битрейт аудио: 192 kbps

MediaInfo

Полное имя : D:\Рипы\Dame.de.trefle.2013.HDTVRip.avi
Формат : AVI
Формат/Информация : Audio Video Interleave
Размер файла : 1,38 Гбайт
Продолжительность : 1 ч. 30 м.
Общий поток : 2177 Кбит/сек
Название фильма : Dame.de.trefle.2013.HDTVRip
Режиссёр : rip by maygli
Программа кодирования : VirtualDubModRus 1.5.10.2 (build 2542/release)
Правообладатель : ... (RG Rulya74)
Видео
Идентификатор : 0
Формат : MPEG-4 Visual
Профиль формата : Advanced Simple@L5
Параметр BVOP формата : 1
Параметр QPel формата : Нет
Параметр GMC формата : Без точки перехода
Параметр матрицы формата : Выборочная
Идентификатор кодека : XVID
Идентификатор кодека/Подсказка : XviD
Продолжительность : 1 ч. 30 м.
Битрейт : 1975 Кбит/сек
Ширина : 720 пикселей
Высота : 400 пикселей
Соотношение сторон : 16:9
Частота кадров : 25,000 кадров/сек
Цветовое пространство : YUV
Субдискретизация насыщенности : 4:2:0
Битовая глубина : 8 бит
Тип развёртки : Прогрессивная
Метод сжатия : С потерями
Бит/(Пиксели*Кадры) : 0.274
Размер потока : 1,25 Гбайт (91%)
Библиотека кодирования : XviD 65
Аудио
Идентификатор : 1
Формат : AC-3
Формат/Информация : Audio Coding 3
Расширение режима : CM (complete main)
Параметр Endianness формата : Big
Идентификатор кодека : 2000
Продолжительность : 1 ч. 30 м.
Вид битрейта : Постоянный
Битрейт : 192 Кбит/сек
Каналы : 2 канала
Расположение каналов : Front: L R
Частота : 48,0 КГц
Битовая глубина : 16 бит
Метод сжатия : С потерями
Размер потока : 124 Мбайт (9%)
Выравнивание : Разделение по промежуткам
Продолжительность промежутка : 40 мс. (1,00 видеокадр)
Время предзагрузки промежутка : 500 мс.
Заголовок : Профессиональный (двухголосый закадровый)
Скриншоты:
[th]http://img.torrentsclub.org/di/G3PF/31c7e72d78d3904...2ee0a87.png[/th] [th]http://img.torrentsclub.org/di/XYJ0/442bd00f26e8f5a...23f1d4d.png[/th] [th]http://img.torrentsclub.org/di/P1NA/d45dfacd9a1fb0e...597d85c.png[/th]
Время раздачи: с 10:00 до 22:30

[Цитировать]



Показать сообщения:    

Текущее время: 24-Июн 16:39

Часовой пояс: UTC + 6


Вы не можете начинать темы
Вы не можете отвечать на сообщения
Вы не можете редактировать свои сообщения
Вы не можете удалять свои сообщения
Вы не можете голосовать в опросах
Вы не можете прикреплять файлы к сообщениям
Вы не можете скачивать файлы

!ВНИМАНИЕ!
Сайт не предоставляет электронные версии произведений, а занимается лишь коллекционированием и каталогизацией ссылок, присылаемых и публикуемых на форуме нашими читателями. Если вы являетесь правообладателем какого-либо представленного материала и не желаете, чтобы ссылка на него находилась в нашем каталоге, свяжитесь с нами, и мы незамедлительно удалим ее. Файлы для обмена на трекере предоставлены пользователями сайта, и администрация не несет ответственности за их содержание. Просьба не заливать файлы, защищенные авторскими правами, а также файлы нелегального содержания!