[ Сегодня идет свободное скачивание без начисления Download ]


Статистика раздачи
Нет
 
   
 
 
 
- Год выпуска: 2010
Страна: Япония
Жанр: комедия, романтика, мистика, школа
Продолжительность: 12 эп. по 24 мин.-Перевод:
  • русские субтитры от Advantage
    переводчик: BO3DYX, редактор: Nachtwandler, редактор: Reaper
-Режиссер: Такаянаги Сигэхито
Студия: Manglobe Inc.-Описание:
17-летний Кэйма Кацураги – очкарик и хрестоматийный игроман, который дни и ночи проводит за любимой приставкой, проходя все появляющиеся дейт-симы. Парню нет дела до реального мира, но среди отаку он носит гордый титул «Бог-покоритель», ибо считается, что в двумерном мире нет девушки, которую «Бог» не смог бы завоевать. Отпраздновав десятитысячную победу, герой получил письмо, в котором некто подвергал сомнению его славу и спрашивал – возьмется ли «Бог-покоритель» доказать свои способности? Возгордившийся Кэйма, не думая, согласился, а зря – ведь тем самым он подписал контракт с одним из высших адских демонов!
Суть контракта, как объяснила герою новая напарница, симпатичная чертовка Элси – охота на беглых духов, которые, самовольно покинув Ад, находят приют в девичьих сердцах. Чтобы поймать беглеца, его надо вытеснить из сердца, добившись любви прекрасной дамы, в чем Кацураги, как всем известно, выдающийся специалист. И напрасно бедняга кричал, что велик лишь в виртуальном мире, а трехмерный терпеть не может – с демонами спорить бесполезно, ну а наказание за неудачу у них лишь одно. Жить Кэйме хотелось, и, скрепя сердце, он решил попробовать, тем более что Элси обещала всевозможную техническую помощь. И самое странное, парень вскоре понял, что игровые приемы безотказно работают на реальных девушках, и неважно, кто перед ним – человек, демоница или богиня!
© Hollow, World Art-Информационные ссылки: AniDB || World Art || MAL-Качество: BDRip
Энкод: Winter - RG Pantheon
Тип видео: без хардсаба
Формат: mkv
Видео: x264 (Hi10p), 1280x720, ~2800 Kbps, 23.976 fps
Аудио JAP: Vorbis, 48000Hz, ~256 Kbps, 2ch
Аудио RUS 1,2: AAC, 48000Hz, 192 Kbps, 2ch (внешними файлами)
Аудио RUS 3,4: AC3, 48000Hz, 192 Kbps, 2ch (внешними файлами)-

Список озвучек в раздаче

  • одноголосая (жен.) от Persona99 (GetSmart)
  • одноголосая (муж.) от Zack Fair (AniDUB)
  • одноголосая (муж.) от loster01 (LE)
  • двухголосая (муж./жен.) от Flame & KroshkaRu (OpenTeam & Sem&Ko)

Список эпизодов

01. The World Runs On Love
02. Demon of a Sister / Baby, You Are a Rich Girl
03. Drive My Car / I Don`t Want to Spoil the Party
04. The Crusade That is Right There, Right Now
05. Idol Bomb!!
06. I`m Ordinary?
07. Shining Star
08. Coupling With With With With
09. Inside and Outside the Big Wall
10. Inside of Me......
11. The Last Day
12. More Than a God, Less Than a Human

Подробные тех. данные

Общее
Уникальный идентификатор : 228027633641743843329700776858876172038 (0xAB8C8657D72B0D98BFC81B02C384D706)
Полное имя : W:\ANIMATION\720p\Kami nomi zo Shiru Sekai [BD] [720p]\[Winter] Kami nomi zo Shiru Sekai 01 [BDrip 1280x720 x264 Vorbis].mkv
Формат : Matroska
Версия формата : Version 2
Размер файла : 779 Мбайт
Продолжительность : 25 м.
Режим общего битрейта : Переменный
Общий поток : 4317 Кбит/сек
Дата кодирования : UTC 2013-03-16 10:45:01
Программа кодирования : mkvmerge v2.9.8 ('C'est le bon') built on Aug 13 2009 12:49:06
Библиотека кодирования : libebml v0.7.7 + libmatroska v0.8.1
Видео
Идентификатор : 1
Формат : AVC
Формат/Информация : Advanced Video Codec
Профиль формата : High 10@L4.1
Параметр CABAC формата : Да
Параметр ReFrames формата : 9 кадров
Идентификатор кодека : V_MPEG4/ISO/AVC
Продолжительность : 25 м.
Битрейт : 3975 Кбит/сек
Ширина : 1280 пикселей
Высота : 720 пикселей
Соотношение сторон : 16:9
Режим частоты кадров : Постоянный
Частота кадров : 23,976 кадра/сек
Цветовое пространство : YUV
Субдискретизация насыщенности : 4:2:0
Битовая глубина : 10 бит
Тип развёртки : Прогрессивная
Бит/(Пиксели*Кадры) : 0.180
Размер потока : 718 Мбайт (92%)
Библиотека кодирования : x264 core 129 r2230 1cffe9f
Настройки программы : cabac=1 / ref=9 / deblock=1:-2:-2 / analyse=0x3:0x133 / me=umh / subme=9 / psy=1 / psy_rd=0.90:0.00 / mixed_ref=1 / me_range=24 / chroma_me=1 / trellis=2 / 8x8dct=1 / cqm=0 / deadzone=21,11 / fast_pskip=1 / chroma_qp_offset=-2 / threads=6 / lookahead_threads=1 / sliced_threads=0 / nr=0 / decimate=0 / interlaced=0 / bluray_compat=0 / constrained_intra=0 / bframes=8 / b_pyramid=2 / b_adapt=2 / b_bias=0 / direct=1 / weightb=1 / open_gop=0 / weightp=2 / keyint=250 / keyint_min=23 / scenecut=40 / intra_refresh=0 / rc=crf / mbtree=0 / crf=15.7 / qcomp=0.70 / qpmin=9 / qpmax=40 / qpstep=4 / ip_ratio=1.40 / pb_ratio=1.30 / aq=1:0.90
Default : Нет
Forced : Нет
Аудио
Идентификатор : 2
Формат : Vorbis
Параметр Floor формата : 1
Идентификатор кодека : A_VORBIS
Продолжительность : 25 м.
Вид битрейта : Переменный
Битрейт : 256 Кбит/сек
Каналы : 2 канала
Частота : 48,0 КГц
Метод сжатия : С потерями
Размер потока : 46,2 Мбайт (6%)
Библиотека кодирования : libVorbis (Schaufenugget) (20101101 (Schaufenugget))
Язык : Japanese
Default : Да
Forced : Нет

[Цитировать]



Показать сообщения:    

Текущее время: 07-Дек 23:19

Часовой пояс: UTC + 3


Вы не можете начинать темы
Вы не можете отвечать на сообщения
Вы не можете редактировать свои сообщения
Вы не можете удалять свои сообщения
Вы не можете голосовать в опросах
Вы не можете прикреплять файлы к сообщениям
Вы не можете скачивать файлы

!ВНИМАНИЕ!
Сайт не предоставляет электронные версии произведений, а занимается лишь коллекционированием и каталогизацией ссылок, присылаемых и публикуемых на форуме нашими читателями. Если вы являетесь правообладателем какого-либо представленного материала и не желаете, чтобы ссылка на него находилась в нашем каталоге, свяжитесь с нами, и мы незамедлительно удалим ее. Файлы для обмена на трекере предоставлены пользователями сайта, и администрация не несет ответственности за их содержание. Просьба не заливать файлы, защищенные авторскими правами, а также файлы нелегального содержания!