[ Сегодня идет свободное скачивание без начисления Download ]


Статистика раздачи
Нет
 
   
 
 
 
- Год выпуска: 2011
Страна: Япония
Жанр: триллер, фантастика, драма
Продолжительность: 24+1 эп. по 24 мин.-Перевод:
  • русские субтитры от Hyakka Ryoran (полные/вспомогательные)
    редакторы: Enma, SeeR, переводчик: Iby
-Режиссер: Сато Такуя
Студия: White Fox-Описание:
Акихабара – интереснейшее место, где обитают самые разные люди – от слегка сдвинутых по фазе до больных на всю голову. Именно такая компания собралась в «Лаборатории проблем времени», что над лавкой старых телевизоров. Возглавляет ее «настоящий буйный», 18-летний Ринтаро Окабэ, сумасшедший ученый и борец с мировым заговором. В серьезном деле нельзя без хакера – вот и он, Итару Хасида, конечно же, толстяк и истинный отаку. Добрая фея лаборатории – Маюри Сиина, подруга детства Ринтаро, официантка мейд-кафе и фанатка косплея, а научную мощь бригады резко повысила юный гений Курису Макисэ, стосковавшаяся по интеллектуальным приключениям и простому человеческому теплу.
Конечно же, ребятам удалось построить машину времени из микроволновки и барахла с ближайшей распродажи. Великие открытия делают любители – профессионалы строят «Титаники». Вот только потом началось такое, что «парадокс дедушки» нервно удалился курить в сторонку, а главный герой трижды проклял тот день, когда сдуру открыл «врата Штейна». Он был готов рисковать своей жизнью, но не чужими… Впрочем, сделанного, как известно, не воротишь. Или… все же можно?
© Hollow, World Art-Информационные ссылки: AniDB || World Art || MAL-Качество: BDRip
Энкод: Yousei-raws | #yousei-raws@irc. rizon. net
Тип видео: без хардсаба
Формат: mkv
Видео: x264 (Hi10p), 1280x720, ~3400 Kbps, 23.976 fps
Аудио JAP: Vorbis, 48000Hz, ~256 Kbps, 2ch
Аудио RUS 1-2: AAC/AC3, 48000Hz, ~192 Kbps, 2ch (внешними файлами)
Аудио RUS 3-4: AAC/AC3, 48000Hz, ~192 Kbps, 2ch (внешними файлами)
Аудио RUS 5-7: AAC/AC3, 48000Hz, ~192 Kbps, 2ch (внешними файлами)
-

Список озвучек в раздаче

  • одноголосая (муж.) от sad_kit (Anything Group)
  • одноголосая (муж.) от Ancord (AniDUB)
  • двухголосая (муж./жен.) от JeFerSon & Persona99 (GetSmart & OpenDub)
  • двухголосая (жен./муж.) от Emeri & loster01 (TF-AniGroup)
  • двухголосая (жен./муж.) от Eladiel & Jam (Animedia)
  • многоголосая от SHIZA [1-12]
    озвучивают: NIKITOS & ZENDOS (1-10) & Viki & Venera & Faraway

Список эпизодов

01. Prologue of the Beginning and the End
02. Time Travel Paranoia
03. Parallel World Paranoia
04. Rendezvous of Abstract Fluctuation
05. Rendezvous of Electrical Charge Conflict
06. Butterfly Effect`s Divergence
07. Divergence Singularity
08. Homeostasis of Dreams
09. Homeostasis of Illusions
10. Homeostasis of Complements
11. Dogma in Event Horizon
12. Dogma in Ergosphere
13. Metaphysics Necrosis
14. Physically Necrosis
15. Missing Link Necrosis
16. Sacrificial Necrosis
17. Made in Complex
18. Fractal Androgynous
19. Endless Apoptosis
20. Finalize Apoptosis
21. Melt of the Principle of Causality
22. Being Meltdown
23. Steins Gate Boundary
24. Prologue to the End and the Beginning
SP (25). Egoistic Poriomania

Подробные тех. данные

Общее
Уникальный идентификатор : 231146278008910298746929758575766473281 (0xADE52761BCBAD9DE9C9D2079A1170A41)
Полное имя : W:\ANIMATION\720p\Steins;Gate [BD] [720p]\[Yousei-raws] Steins;Gate 01 [BDrip 1280x720 x264 Vorbis].mkv
Формат : Matroska
Версия формата : Version 2
Размер файла : 648 Мбайт
Продолжительность : 23 м.
Режим общего битрейта : Переменный
Общий поток : 3786 Кбит/сек
Дата кодирования : UTC 2011-11-06 20:27:46
Программа кодирования : mkvmerge v2.9.7 ('Tenderness') built on Jul 1 2009 18:43:35
Библиотека кодирования : libebml v0.7.7 + libmatroska v0.8.1
Видео
Идентификатор : 1
Формат : AVC
Формат/Информация : Advanced Video Codec
Профиль формата : High 10@L4.1
Параметр CABAC формата : Да
Параметр ReFrames формата : 8 кадров
Идентификатор кодека : V_MPEG4/ISO/AVC
Продолжительность : 23 м.
Битрейт : 3454 Кбит/сек
Ширина : 1280 пикселей
Высота : 720 пикселей
Соотношение сторон : 16:9
Режим частоты кадров : Постоянный
Частота кадров : 23,976 кадра/сек
Цветовое пространство : YUV
Субдискретизация насыщенности : 4:2:0
Битовая глубина : 10 бит
Тип развёртки : Прогрессивная
Бит/(Пиксели*Кадры) : 0.156
Размер потока : 592 Мбайт (91%)
Библиотека кодирования : x264 core 118 r2085+614 d1cc25d
Настройки программы : cabac=1 / ref=8 / deblock=1:-2:-2 / analyse=0x3:0x133 / me=umh / subme=9 / psy=1 / fade_compensate=0.00 / psy_rd=0.80:0.00 / mixed_ref=1 / me_range=24 / chroma_me=1 / trellis=2 / 8x8dct=1 / cqm=0 / deadzone=21,11 / fast_pskip=1 / chroma_qp_offset=-2 / threads=6 / sliced_threads=0 / nr=0 / decimate=0 / interlaced=0 / bluray_compat=0 / constrained_intra=0 / fgo=0 / bframes=8 / b_pyramid=2 / b_adapt=2 / b_bias=0 / direct=1 / weightb=1 / open_gop=0 / weightp=2 / keyint=250 / keyint_min=23 / scenecut=40 / intra_refresh=0 / rc=crf / mbtree=0 / crf=16.2 / qcomp=0.70 / qpmin=9 / qpmax=38 / qpstep=4 / ip_ratio=1.40 / pb_ratio=1.30 / aq=1:0.90
Default : Да
Forced : Нет
Аудио
Идентификатор : 2
Формат : Vorbis
Параметр Floor формата : 1
Идентификатор кодека : A_VORBIS
Продолжительность : 23 м.
Вид битрейта : Переменный
Битрейт : 256 Кбит/сек
Каналы : 2 канала
Частота : 48,0 КГц
Метод сжатия : С потерями
Размер потока : 43,9 Мбайт (7%)
Библиотека кодирования : libVorbis (Schaufenugget) (20101101 (Schaufenugget))
Язык : Japanese
Default : Да
Forced : Нет

[Цитировать]



Показать сообщения:    

Текущее время: 07-Дек 15:38

Часовой пояс: UTC + 3


Вы не можете начинать темы
Вы не можете отвечать на сообщения
Вы не можете редактировать свои сообщения
Вы не можете удалять свои сообщения
Вы не можете голосовать в опросах
Вы не можете прикреплять файлы к сообщениям
Вы не можете скачивать файлы

!ВНИМАНИЕ!
Сайт не предоставляет электронные версии произведений, а занимается лишь коллекционированием и каталогизацией ссылок, присылаемых и публикуемых на форуме нашими читателями. Если вы являетесь правообладателем какого-либо представленного материала и не желаете, чтобы ссылка на него находилась в нашем каталоге, свяжитесь с нами, и мы незамедлительно удалим ее. Файлы для обмена на трекере предоставлены пользователями сайта, и администрация не несет ответственности за их содержание. Просьба не заливать файлы, защищенные авторскими правами, а также файлы нелегального содержания!