[ Сегодня идет свободное скачивание без начисления Download ]


Статистика раздачи
Качаю: [ 1 ]
 
   
 
 
 
Монстр за соседней партойTonari no Kaibutsu-kun / My Little Monster- Год выпуска: 2012
Страна: Япония
Жанр: комедия, романтика, школа, сёдзё
Тип: ТВ (13 эп.)
Продолжительность: ~ 25 мин.-Озвучка:

Eladiel & Zendos (двухголосая)
озвучено по переводу Dreamers Team
OziRIST & Angel (двухголосая)
озвучено по переводу Dreamers Team
Keita & Shina (двухголосая)
озвучено по переводу FooBoo-Субтитры:
GMC (полные)
переводчик: Pat-Rica; редактор: Nerevar; оформление: nismo
Dreamers Team (полные)
переводчик: Empty; редактор: Ryuji
Teisoku & Amanri & Stan (полные)
переводчик: Amanri; редактор: Zottig, оформление: Stan WarHammer, QC: Asca, Stan WarHammer, Faktoreal-Студия: Brains Base
Режиссер: Кабураки Хиро-Описание: 16-летняя Сидзуку Мидзутани любит учиться и думать о своем будущем. Больше ей ничего не нужно, потому девушка и в старшей школе выстраивает образ «ботанички», в общении с остальными ограничиваясь простой вежливостью. Только, как на грех, учительница попросила героиню отнести конспекты загадочному парню Хару Ёсиде, который должен сидеть с Мидзутани рядом, но до сих пор отстранен от учебы за драку. Беззастенчиво раскрутив молодого педагога на новый учебник, Сидзуку все же взяла распечатки и отправилась домой к таинственному соседу по классу. Это ее и погубило!
Жуткий хулиган Хару оказался большим ребенком – сильным, добрым, наивным до бесконечности, готовым в лепешку расшибиться ради товарищей. Визит одноклассницы он расценил как предложение дружбы – как тут не дрогнуть девичьему сердечку! «Ледышка» Мидзутани сама не поняла, как стала проводить с Ёсидой все больше времени, вылезая из скорлупы, под которой оказался нормальный человек, чьи желания отнюдь не сводятся к первому месту на экзаменах. Ребята словно обменялись энергией: Хару, начав ходить в школу, оказался чуть ли не гением, а Сидзуку познала чувства, которые приходят лишь весной жизни. Теперь у героев появились друзья и соперники – встречайте новую романтическую комедию! © Hollow, World Art
-Ссылки: World-Art | MyAnimeList | AniDB | ANN-Качество: HDTVRip [Raws-4U] | Тип видео: без хардсаба | Формат: mp4
Видео:
x264, 8 bit, 1280x720 (16:9), ~24,74 fps, ~1932 Kbps, 0.085 bit/pixel
Аудио:
AAC, 48,0 kHz, stereo, 2ch, VBR ~192 kbps
AAC, 48,0 kHz, stereo, 2ch, VBR ~193 kbps - отдельная дорожка - Eladiel & Zendos
AAC, 48,0 kHz, stereo, 2ch, VBR ~193 kbps - отдельная дорожка - OziRIST & Angel
AAC, 48,0 kHz, stereo, 2ch, VBR ~193 kbps - отдельная дорожка - Keita & Shina
Субтитры:
ASS - отдельные - GMC
ASS - отдельные - Dreamers Team
ASS - отдельные - Teisoku & Amanri & Stan-

Список эпизодов

01. Sitting Next to Yoshida-kun
02. Weird
03. Nuisance
04. Summer Break
05. Yoshida Family Matters
06. Girls Feeling Melancholy
07. The Distance Between Us
08. Come Down to Syoyo Festival!
09. 0 x 1
10. Christmas
11. The Yamaguchis` Son, Kenji-kun
12. The Year Draws to a Close
13. Spring Is Near

Подробные тех. данные

Общее
Полное имя : Tonari no Kaibutsu-kun - 01 (TX 1280x720 x264).mp4
Формат : MPEG-4
Профиль формата : Base Media
Идентификатор кодека : isom
Размер файла : 375 Мбайт
Продолжительность : 24 м.
Режим общего битрейта : Переменный
Общий поток : 2124 Кбит/сек
Дата кодирования : UTC 2012-10-01 17:54:49
Дата пометки : UTC 2012-10-01 17:54:49
Видео
Идентификатор : 1
Формат : AVC
Формат/Информация : Advanced Video Codec
Профиль формата : [email protected]
Параметр CABAC формата : Да
Параметр ReFrames формата : 4 кадра
Идентификатор кодека : avc1
Идентификатор кодека/Информация : Advanced Video Coding
Продолжительность : 24 м.
Битрейт : 1932 Кбит/сек
Максимальный битрейт : 13,2 Мбит/сек
Ширина : 1280 пикселей
Высота : 720 пикселей
Соотношение сторон : 16:9
Режим частоты кадров : Переменный
Частота кадров : 24,744 кадров/сек
Частота кадров в оригинале : 23,976 кадра/сек
Минимальная частота кадров : 23,976 кадра/сек
Максимальная частота кадров : 59,940 кадров/сек
Цветовое пространство : YUV
Субдискретизация насыщенности : 4:2:0
Битовая глубина : 8 бит
Тип развёртки : Прогрессивная
Бит/(Пиксели*Кадры) : 0.085
Размер потока : 341 Мбайт (91%)
Библиотека кодирования : x264 core 128 r2216 198a7ea
Настройки программы : cabac=1 / ref=4 / deblock=1:-1:-1 / analyse=0x3:0x113 / me=umh / subme=9 / psy=1 / psy_rd=0.60:0.20 / mixed_ref=1 / me_range=32 / chroma_me=1 / trellis=2 / 8x8dct=1 / cqm=0 / deadzone=21,11 / fast_pskip=0 / chroma_qp_offset=-3 / threads=6 / lookahead_threads=1 / sliced_threads=0 / nr=0 / decimate=0 / interlaced=0 / bluray_compat=0 / constrained_intra=0 / bframes=3 / b_pyramid=0 / b_adapt=2 / b_bias=0 / direct=3 / weightb=1 / open_gop=0 / weightp=2 / keyint=240 / keyint_min=1 / scenecut=50 / intra_refresh=0 / rc=crf / mbtree=0 / crf=20.0 / qcomp=0.60 / qpmin=0 / qpmax=28 / qpstep=8 / ip_ratio=1.40 / pb_ratio=1.30 / aq=1:0.50
Дата кодирования : UTC 2012-10-01 17:54:42
Дата пометки : UTC 2012-10-01 17:54:51
Основные цвета : BT.709
Характеристики трансфера : BT.709
Коэффициенты матрицы : BT.709
Аудио
Идентификатор : 2
Формат : AAC
Формат/Информация : Advanced Audio Codec
Профиль формата : LC
Идентификатор кодека : 40
Продолжительность : 24 м.
Вид битрейта : Переменный
Битрейт : 192 Кбит/сек
Максимальный битрейт : 195 Кбит/сек
Каналы : 2 канала
Расположение каналов : Front: L R
Частота : 48,0 КГц
Метод сжатия : С потерями
Задержка видео : 42 мс.
Размер потока : 33,3 Мбайт (9%)
Дата кодирования : UTC 2012-10-01 17:54:50
Дата пометки : UTC 2012-10-01 17:54:51
Меню
00:00:00.000 : Avant
00:00:27.995 : OP
00:02:07.995 : A-part
00:14:18.991 : B-part
00:22:22.441 : ED
00:24:14.987 : Next

[Цитировать]



Показать сообщения:    

Текущее время: 05-Дек 03:31

Часовой пояс: UTC + 3


Вы не можете начинать темы
Вы не можете отвечать на сообщения
Вы не можете редактировать свои сообщения
Вы не можете удалять свои сообщения
Вы не можете голосовать в опросах
Вы не можете прикреплять файлы к сообщениям
Вы не можете скачивать файлы

!ВНИМАНИЕ!
Сайт не предоставляет электронные версии произведений, а занимается лишь коллекционированием и каталогизацией ссылок, присылаемых и публикуемых на форуме нашими читателями. Если вы являетесь правообладателем какого-либо представленного материала и не желаете, чтобы ссылка на него находилась в нашем каталоге, свяжитесь с нами, и мы незамедлительно удалим ее. Файлы для обмена на трекере предоставлены пользователями сайта, и администрация не несет ответственности за их содержание. Просьба не заливать файлы, защищенные авторскими правами, а также файлы нелегального содержания!