[ Сегодня идет свободное скачивание без начисления Download ]


Статистика раздачи
Нет
 
   
 
Top  
 
 
Ледниковый период 4: Континентальный дрейф / Ice Age: Continental Drift Страна: США
Жанр: мультфильм, комедия, приключения, семейный
Год выпуска: 2012
Продолжительность: 01:27:45-Перевод: Профессиональный (дублированный) Blu-ray CEE
Cубтитры: Russian (Blu-ray CEE, Voronine), Ukrainian, English
Оригинальная аудиодорожка: English-Режиссер: Стив Мартино / Steve Martino, Майк Тёрмайер / Mike Thurmeier
В ролях: Рэй Романо, Джон Легуизамо, Куин Латифа, Дэнис Лири, Джош Пек, Питер Динклэйдж, Кеке Палмер, Дженнифер Лопез, Ник Фрост, Азиз Ансари-Описание: После приключений под землей прошло семь лет. Случился дрейф континентов. Главные герои мультфильма, отделённые от стада, вынуждены использовать айсберг в качестве плота. Они пересекают океан и попадают в неизвестные им ранее земли с экзотическими животными и пиратами, враждебно настроенными к ним. Скрэту удаётся получить свой жёлудь, но он перемещается в новые для него земли.- -Качество: BDRip 1080p
Контейнер: MKV
Видео: H.264, 1920x800, 23.976 fps, 11500 Kbps avg
Аудио #1: Russian: DTS 5.1, 48 kHz, 768 kbps avg |Дубляж, Blu-ray CEE|
Аудио #2: Ukrainian: AC3 5.1, 48 kHz, 448 kbps avg |Дубляж, Blu-ray CEE|
Аудио #3: English: DTS 5.1, 48 kHz, 1536 kbps avg
Формат субтитров: softsub (SRT)

MediaInfo

General
Unique ID : 252335309598221023306000718066208037445 (0xBDD6034BFB6659878CE7E59814295A45)
Complete name : E:\Ice.Age.Continental.Drift.2012.BDRip.1080p.mkv
Format : Matroska
File size : 8.72 GiB
Duration : 1h 27mn
Overall bit rate : 14.2 Mbps
Movie name : Ледниковый период 4: Континентальный дрейф
Encoded date : UTC 2012-10-30 20:58:01
Writing application : mkvmerge v5.1.0 ('And so it goes') built on Nov 28 2011 23:58:28
Writing library : libebml v1.2.3 + libmatroska v1.3.0
Video
ID : 1
Format : AVC
Format/Info : Advanced Video Codec
Format profile : High@L4.1
Format settings, CABAC : Yes
Format settings, ReFrames : 5 frames
Codec ID : V_MPEG4/ISO/AVC
Duration : 1h 27mn
Bit rate : 11.5 Mbps
Width : 1 920 pixels
Height : 800 pixels
Display aspect ratio : 2.40:1
Frame rate : 23.976 fps
Color space : YUV
Chroma subsampling : 4:2:0
Bit depth : 8 bits
Scan type : Progressive
Bits/(Pixel*Frame) : 0.312
Stream size : 6.88 GiB (79%)
Title : Ледниковый период 4: Континентальный дрейф
Writing library : x264 core 128 r2216+688+33 06dac27 tMod+MixAQ [8-bit@4:2:0 X86_64]
Encoding settings : cabac=1 / ref=5 / deblock=1:-1:-1 / analyse=0x3:0x113 / me=umh / subme=11 / psy=1 / fade_compensate=0.00 / psy_rd=0.80:0.00 / mixed_ref=1 / me_range=32 / chroma_me=1 / trellis=2 / 8x8dct=1 / cqm=0 / deadzone=21,11 / fast_pskip=0 / chroma_qp_offset=-2 / threads=18 / lookahead_threads=3 / sliced_threads=0 / nr=0 / decimate=0 / interlaced=0 / bluray_compat=0 / constrained_intra=0 / fgo=0 / bframes=8 / b_pyramid=2 / b_adapt=2 / b_bias=0 / direct=3 / weightb=1 / open_gop=0 / weightp=2 / keyint=240 / keyint_min=24 / scenecut=40 / intra_refresh=0 / rc_lookahead=240 / rc=2pass / mbtree=1 / bitrate=11500 / ratetol=1.0 / qcomp=0.70 / qpmin=0 / qpmax=69 / qpstep=4 / cplxblur=20.0 / qblur=0.5 / ip_ratio=1.10 / aq=4 / aq-strength=1.00 / aq-sensitivity=10.00 / aq-ifactor=1.00 / aq-pfactor=1.00 / aq-bfactor=1.00 / aq2=0
Language : English
Audio #1
ID : 2
Format : DTS
Format/Info : Digital Theater Systems
Codec ID : A_DTS
Duration : 1h 27mn
Bit rate mode : Constant
Bit rate : 755 Kbps
Channel(s) : 6 channels
Channel positions : Front: L C R, Side: L R, LFE
Sampling rate : 48.0 KHz
Bit depth : 24 bits
Compression mode : Lossy
Stream size : 474 MiB (5%)
Title : DTS - Дубляж (Blu-ray CEE)
Language : Russian
Audio #2
ID : 3
Format : AC-3
Format/Info : Audio Coding 3
Mode extension : CM (complete main)
Codec ID : A_AC3
Duration : 1h 27mn
Bit rate mode : Constant
Bit rate : 448 Kbps
Channel(s) : 6 channels
Channel positions : Front: L C R, Side: L R, LFE
Sampling rate : 48.0 KHz
Bit depth : 16 bits
Compression mode : Lossy
Stream size : 281 MiB (3%)
Title : AC3 - Дубляж (Blu-ray CEE)
Language : Ukrainian
Audio #3
ID : 4
Format : DTS
Format/Info : Digital Theater Systems
Codec ID : A_DTS
Duration : 1h 27mn
Bit rate mode : Constant
Bit rate : 1 510 Kbps
Channel(s) : 6 channels
Channel positions : Front: L C R, Side: L R, LFE
Sampling rate : 48.0 KHz
Bit depth : 24 bits
Compression mode : Lossy
Stream size : 948 MiB (11%)
Title : DTS
Language : English
Text #1
ID : 5
Format : UTF-8
Codec ID : S_TEXT/UTF8
Codec ID/Info : UTF-8 Plain Text
Title : Blu-ray CEE
Language : Russian
Text #2
ID : 6
Format : UTF-8
Codec ID : S_TEXT/UTF8
Codec ID/Info : UTF-8 Plain Text
Title : Voronine
Language : Russian
Text #3
ID : 7
Format : UTF-8
Codec ID : S_TEXT/UTF8
Codec ID/Info : UTF-8 Plain Text
Title : Blu-ray CEE
Language : Ukrainian
Text #4
ID : 8
Format : UTF-8
Codec ID : S_TEXT/UTF8
Codec ID/Info : UTF-8 Plain Text
Language : English
Menu
00:00:00.000 : en:Chapter 01
00:03:24.037 : en:Chapter 02
00:05:07.224 : en:Chapter 03
00:09:33.406 : en:Chapter 04
00:13:08.705 : en:Chapter 05
00:15:55.329 : en:Chapter 06
00:18:22.643 : en:Chapter 07
00:22:23.717 : en:Chapter 08
00:25:56.555 : en:Chapter 09
00:29:17.965 : en:Chapter 10
00:32:57.601 : en:Chapter 11
00:36:14.381 : en:Chapter 12
00:38:41.653 : en:Chapter 13
00:43:48.709 : en:Chapter 14
00:45:29.644 : en:Chapter 15
00:49:38.976 : en:Chapter 16
00:53:49.476 : en:Chapter 17
00:57:22.856 : en:Chapter 18
01:02:31.039 : en:Chapter 19
01:08:08.334 : en:Chapter 20
01:11:10.475 : en:Chapter 21
01:13:14.640 : en:Chapter 22
01:16:53.400 : en:Chapter 23
01:19:23.634 : en:Chapter 24

Скриншоты

[Цитировать]



Показать сообщения:    

Текущее время: 09-Дек 14:39

Часовой пояс: UTC + 3


Вы не можете начинать темы
Вы не можете отвечать на сообщения
Вы не можете редактировать свои сообщения
Вы не можете удалять свои сообщения
Вы не можете голосовать в опросах
Вы не можете прикреплять файлы к сообщениям
Вы не можете скачивать файлы

!ВНИМАНИЕ!
Сайт не предоставляет электронные версии произведений, а занимается лишь коллекционированием и каталогизацией ссылок, присылаемых и публикуемых на форуме нашими читателями. Если вы являетесь правообладателем какого-либо представленного материала и не желаете, чтобы ссылка на него находилась в нашем каталоге, свяжитесь с нами, и мы незамедлительно удалим ее. Файлы для обмена на трекере предоставлены пользователями сайта, и администрация не несет ответственности за их содержание. Просьба не заливать файлы, защищенные авторскими правами, а также файлы нелегального содержания!