[ Сегодня идет свободное скачивание без начисления Download ]


Статистика раздачи
Нет
 
   
 
 
 
Мастер Муси / Mushishi- Страна: Япония
Год выпуска: 2006 г.
Жанр: мистика, приключения, драма
Тип: TV
Продолжительность: (26 эп.), 25 мин.
Режиссер: Нагахама Хироси
Студия: Artland
-Озвучивание:
  • Е. Лурье (серии 01-02), Харука (серии 03-20), Алекс Килька (серии 21-26)
-Перевод на русский: Субтитры (внешними файлами)
  • Перевод - unvasily 1- 26 серии
  • Редактура - Kai Wren \ Iori
-Описание: Кроме видимого мира, доступного органам чувств, есть пространство, где бок о бок с человеком обитают муси. Люди привыкли опасаться эти странных созданий, которые нередко становятся источником болезней и бед, пусть и не по своей воле. Однако есть те, кто способен видеть муси и умеет управлять ими. Таких специалистов называют «Мастерами Муси».
Гинко – странствующий Мастер Муси. Иногда его приглашают помочь, иногда он сам является, прослышав о диковинном создании, а порой приходит туда, где побывал когда-то. Очень часто ему приходится не только изгонять опасных муси, но также исцелять людские души. Каждый случай уникален, как не похожи одна на другую человеческие судьбы. Но Гинко не стремится уничтожить муси – гораздо интереснее понять их сущность.
Детективная основа «Мастера Муси» превращает сериал в цепочку загадок и расследований. Мистическая сторона делает каждую историю притчей. Действие неспешно развивается в условном средневековье эпохи Эдо, среди покрытых лесами гор и рисовых полей. Здесь нет особой динамики, зато хватает поэтичности и глубины.
© Расселл Д. Джонс, World Art
-HWP - проигрывается на бытовых, железных проигрывателях-Качество: DVDRip
Формат видео: AVI
Кодер: ole4ka8411
Видео: XviD; 704x396; 23.976 fps; ~1500 Kbps
Аудио 1: Rus - Mp3; stereo; 48.0 kHz; 192 kbps
Аудио 2: Jap - Mp3; stereo; 48.0 kHz; 192 kbps
-

Список эпизодов

01. The Green Seat
02. The Light of the Eyelid
03. Tender Horns
04. The Pillow Pathway
05. The Traveling Swamp
06. Those Who Inhale the Dew
07. Raindrops and Rainbows
08. Where Sea Meets Man
09. The Heavy Seed
10. The White Which Lives Within the Ink Stone
11. The Sleeping Mountain
12. One-Eyed Fish
13. One-Night Bridge
14. Inside the Cage
15. Pretense of Spring
16. Sunrise Serpent
17. Pickers of Empty Cocoons
18. Clothes That Embrace the Mountain
19. String From the Sky
20. A Sea of Writings
21. Cotton Changeling
22. Shrine in the Sea
23. The Sound of Rust
24. The Journey to the Field of Fire
25. Eye of Fortune, Eye of Misfortune
26. The Sound of Footsteps on the Grass

MediaInfo

General
Complete name : E:\Mushishi TV [HWP]\Mushishi_TV_01_[xvid_704x396].avi
Format : AVI
Format/Info : Audio Video Interleave
File size : 255 MiB
Duration : 23mn 38s
Overall bit rate : 1 509 Kbps
Writing application : Lavf52.85.0
Video
ID : 0
Format : MPEG-4 Visual
Format profile : Simple@L3
Format settings, BVOP : No
Format settings, QPel : No
Format settings, GMC : No warppoints
Format settings, Matrix : Default (H.263)
Codec ID : XVID
Codec ID/Hint : XviD
Duration : 23mn 38s
Bit rate : 1 104 Kbps
Width : 704 pixels
Height : 396 pixels
Display aspect ratio : 16:9
Frame rate : 23.976 fps
Color space : YUV
Chroma subsampling : 4:2:0
Bit depth : 8 bits
Scan type : Progressive
Compression mode : Lossy
Bits/(Pixel*Frame) : 0.165
Stream size : 187 MiB (73%)
Title : Episode01: The Green Throne
Writing library : XviD 1.2.1 (UTC 2008-12-04)
Audio #1
ID : 1
Format : MPEG Audio
Format version : Version 1
Format profile : Layer 3
Codec ID : 55
Codec ID/Hint : MP3
Duration : 23mn 38s
Bit rate mode : Constant
Bit rate : 192 Kbps
Channel(s) : 2 channels
Sampling rate : 48.0 KHz
Compression mode : Lossy
Stream size : 32.5 MiB (13%)
Alignment : Aligned on interleaves
Interleave, duration : 24 ms (0.58 video frame)
Interleave, preload duration : 24 ms
Title : E.Lur'e
Audio #2
ID : 2
Format : MPEG Audio
Format version : Version 1
Format profile : Layer 3
Codec ID : 55
Codec ID/Hint : MP3
Duration : 23mn 38s
Bit rate mode : Constant
Bit rate : 192 Kbps
Channel(s) : 2 channels
Sampling rate : 48.0 KHz
Compression mode : Lossy
Stream size : 32.5 MiB (13%)
Alignment : Aligned on interleaves
Interleave, duration : 24 ms (0.58 video frame)
Interleave, preload duration : 24 ms
Title : JP_sound
Writing library : LAME3.98.4
-

[Цитировать]



Показать сообщения:    

Текущее время: 10-Дек 21:37

Часовой пояс: UTC + 3


Вы не можете начинать темы
Вы не можете отвечать на сообщения
Вы не можете редактировать свои сообщения
Вы не можете удалять свои сообщения
Вы не можете голосовать в опросах
Вы не можете прикреплять файлы к сообщениям
Вы не можете скачивать файлы

!ВНИМАНИЕ!
Сайт не предоставляет электронные версии произведений, а занимается лишь коллекционированием и каталогизацией ссылок, присылаемых и публикуемых на форуме нашими читателями. Если вы являетесь правообладателем какого-либо представленного материала и не желаете, чтобы ссылка на него находилась в нашем каталоге, свяжитесь с нами, и мы незамедлительно удалим ее. Файлы для обмена на трекере предоставлены пользователями сайта, и администрация не несет ответственности за их содержание. Просьба не заливать файлы, защищенные авторскими правами, а также файлы нелегального содержания!