[ Сегодня идет свободное скачивание без начисления Download ]


Статистика раздачи
Нет
 
   
 
Top  
 
 
- Неzлоб / Незлобин (Серии 1-16 из 16) (2013) WEB-DL - Режиссер / Телекомпания: ТНТ
Русское название: Неzлоб
Год выпуска: 2013
Жанр: Ситком, комедия
Выпущено: Comedy Club Production
Описание:
«Неzлоб» - ситком Александра Незлобина о реальной жизни Александра Незлобина с Александром Незлобиным в главной роли.
Кажется, что у Саши Незлобина есть все: любимое дело, внимание девушек, праворукий джип, веселые тусовки, а его стендапы показывают по телевизору. Но на самом деле это обычный 30-летний парень из Ё-бурга, который любит поесть, поспать и вообще живет с мамой. Он бегает по району от кредиторов и ревнивых мужей своих подруг, страдает из-за любви и друзей-авантюристов. У него есть два комплекса - полнота и отношения с девушками, о которых он рассказывает в своих стендапах.
В ситкоме снялись реальные друзья Александра, его мама, экс-генеральный директор ТНТ Роман Петренко, генеральный продюсер ТНТ Александр Дулерайн, основатель Comedy Club Production Артур Джанибекян, директор программного департамента ТНТ Владимир Воронов, а также много попавшихся под руку людей, которые никогда не собирались играть в кино, - вроде продавщицы хот-догов, лифтера и т.д.
Режиссер: Григорий Федоров, Всеволод Бродский
Актеры: Александр Незлобин, Анатолий Бурносов, Иван Охлобыстин, Сергей Светлаков, Кристина Асмус, Павел Воля, Гавриил Гордеев, группа USB и другие.
Продолжительность: Каждая серия ~ 00:25:00
Видеокодек: AVC
Битрейт видео: ~3174 kb/s
Размер кадра: 1280 x 720 / (512 х 288 - 11 серия)
Качество видео: WEB-DL
Аудиокодек: AC-3, 2ch.
Битрейт аудио: 192 kb/s

MediaInfo

Формат : Matroska
Версия формата : Version 2
Размер файла : 603 Мбайт
Продолжительность : 24 м.
Общий поток : 3435 Кбит/сек
Программа кодирования : Lavf54.59.106
Библиотека кодирования : Lavf54.59.106
Видео
Идентификатор : 1
Формат : AVC
Формат/Информация : Advanced Video Codec
Профиль формата : High@L4.0
Параметр CABAC формата : Да
Параметр ReFrames формата : 8 кадров
Идентификатор кодека : V_MPEG4/ISO/AVC
Продолжительность : 24 м.
Битрейт : 3174 Кбит/сек
Ширина : 1280 пикселей
Высота : 720 пикселей
Соотношение сторон : 16:9
Режим частоты кадров : Переменный
Частота кадров : 25,000 кадров/сек
Цветовое пространство : YUV
Субдискретизация насыщенности : 4:2:0
Битовая глубина : 8 бит
Тип развёртки : Прогрессивная
Бит/(Пиксели*Кадры) : 0.138
Размер потока : 558 Мбайт (92%)
Библиотека кодирования : x264 core 125
Настройки программы : cabac=1 / ref=8 / deblock=1:-1:-1 / analyse=0x3:0x133 / me=umh / subme=9 / psy=1 / psy_rd=1.00:0.15 / mixed_ref=1 / me_range=16 / chroma_me=1 / trellis=2 / 8x8dct=1 / cqm=0 / deadzone=21,11 / fast_pskip=1 / chroma_qp_offset=-3 / threads=12 / lookahead_threads=2 / sliced_threads=0 / nr=0 / decimate=1 / interlaced=0 / bluray_compat=0 / constrained_intra=0 / bframes=3 / b_pyramid=2 / b_adapt=2 / b_bias=0 / direct=3 / weightb=1 / open_gop=0 / weightp=2 / keyint=100 / keyint_min=10 / scenecut=40 / intra_refresh=0 / rc_lookahead=60 / rc=crf / mbtree=1 / crf=17.0 / qcomp=0.60 / qpmin=0 / qpmax=69 / qpstep=4 / vbv_maxrate=3600 / vbv_bufsize=3600 / crf_max=0.0 / nal_hrd=none / ip_ratio=1.40 / aq=1:1.00
Язык : English
Default : Да
Forced : Нет
Аудио
Идентификатор : 2
Формат : AC-3
Формат/Информация : Audio Coding 3
Расширение режима : CM (complete main)
Идентификатор кодека : A_AC3
Продолжительность : 24 м.
Вид битрейта : Постоянный
Битрейт : 192 Кбит/сек
Каналы : 2 канала
Расположение каналов : Front: L R
Частота : 44,1 КГц
Битовая глубина : 16 бит
Метод сжатия : С потерями
Задержка видео : 1 м. 5 с.
Размер потока : 33,7 Мбайт (6%)
Язык : English
Default : Да
Forced : Нет
Формат : Matroska
Версия формата : Version 2
Размер файла : 148 Мбайт
Продолжительность : 24 м.
Общий поток : 859 Кбит/сек
Дата кодирования : UTC 2013-11-21 16:54:34
Программа кодирования : mkvmerge v6.1.0 ('Old Devil') built on Mar 4 2013 09:10:42
Библиотека кодирования : libebml v1.3.0 + libmatroska v1.4.0
Видео
Идентификатор : 1
Формат : AVC
Формат/Информация : Advanced Video Codec
Профиль формата : Baseline@L3.0
Параметр CABAC формата : Нет
Параметр ReFrames формата : 8 кадров
Идентификатор кодека : V_MPEG4/ISO/AVC
Продолжительность : 24 м.
Битрейт : 650 Кбит/сек
Ширина : 512 пикселей
Высота : 288 пикселей
Соотношение сторон : 16:9
Режим частоты кадров : Переменный
Частота кадров : 25,000 кадров/сек
Цветовое пространство : YUV
Субдискретизация насыщенности : 4:2:0
Битовая глубина : 8 бит
Тип развёртки : Прогрессивная
Бит/(Пиксели*Кадры) : 0.176
Размер потока : 112 Мбайт (76%)
Библиотека кодирования : x264 core 125
Настройки программы : cabac=0 / ref=8 / deblock=1:-1:-1 / analyse=0x1:0x131 / me=umh / subme=9 / psy=1 / psy_rd=1.00:0.15 / mixed_ref=1 / me_range=16 / chroma_me=1 / trellis=2 / 8x8dct=0 / cqm=0 / deadzone=21,11 / fast_pskip=1 / chroma_qp_offset=-3 / threads=18 / lookahead_threads=3 / sliced_threads=0 / nr=0 / decimate=1 / interlaced=0 / bluray_compat=0 / constrained_intra=0 / bframes=0 / weightp=0 / keyint=100 / keyint_min=10 / scenecut=40 / intra_refresh=0 / rc_lookahead=60 / rc=crf / mbtree=1 / crf=17.0 / qcomp=0.60 / qpmin=0 / qpmax=69 / qpstep=4 / vbv_maxrate=700 / vbv_bufsize=700 / crf_max=0.0 / nal_hrd=none / ip_ratio=1.40 / aq=1:1.00
Default : Да
Forced : Нет
Аудио
Идентификатор : 2
Формат : AC-3
Формат/Информация : Audio Coding 3
Расширение режима : CM (complete main)
Идентификатор кодека : A_AC3
Продолжительность : 24 м.
Вид битрейта : Постоянный
Битрейт : 192 Кбит/сек
Каналы : 2 канала
Расположение каналов : Front: L R
Частота : 44,1 КГц
Битовая глубина : 16 бит
Метод сжатия : С потерями
Размер потока : 33,0 Мбайт (22%)
Default : Да
Forced : Нет

Скриншоты

[Цитировать]



Показать сообщения:    

Текущее время: 11-Дек 13:02

Часовой пояс: UTC + 3


Вы не можете начинать темы
Вы не можете отвечать на сообщения
Вы не можете редактировать свои сообщения
Вы не можете удалять свои сообщения
Вы не можете голосовать в опросах
Вы не можете прикреплять файлы к сообщениям
Вы не можете скачивать файлы

!ВНИМАНИЕ!
Сайт не предоставляет электронные версии произведений, а занимается лишь коллекционированием и каталогизацией ссылок, присылаемых и публикуемых на форуме нашими читателями. Если вы являетесь правообладателем какого-либо представленного материала и не желаете, чтобы ссылка на него находилась в нашем каталоге, свяжитесь с нами, и мы незамедлительно удалим ее. Файлы для обмена на трекере предоставлены пользователями сайта, и администрация не несет ответственности за их содержание. Просьба не заливать файлы, защищенные авторскими правами, а также файлы нелегального содержания!