[ Сегодня идет свободное скачивание без начисления Download ]


Статистика раздачи
Нет
 
   
 
Top  
 
 
-Мастер тай-цзи / Man of Tai Chi (2013) BDRip- Год выпуска: 2013
Производство: США, Китай, Гонконг
Жанр: Боевик
Перевод: Многоголосый закадровый, профессиональный (Baibako)
Вид субтитров: Вшитые отключаемые
Язык субтитров: Русский, Английский (SDH, SDH-Colored)-Дата мировой премьеры: 5 июля 2013 (Китай)-Режиссер: Киану Ривз-Продюсер: Лимор Сиван, Ноа Вейнцвейг, Чжан Дасин-Актеры: Киану Ривз, Тайгер Ху Чен, Ико Ювайс, Карен Мок, Саймон Ям, Сильвио Шимач, Цин Е, Джереми Меринас, Хелен Леклерк, Ю Сон Чжун, Стивен Дасс, Сэм Ли ...-Описание фильма:
• Пекин. Амбициозный юноша Чэнь Линь-Ху по кличке «Тигр» подрабатывает скромным курьером, но после работы он превращается в молодую звезду боевых искусств, постепенно оттачивая свои навыки, следуя традициям Тайцзи Лин Кун. Обучившись размеренным и мирным движениям из Тайцзи, он приспособил их для бойцовских соревнований.
• Донака Марк, скрываясь от гонконгской полиции, попадает в другой столичный мегаполис, где царит неразбериха и хаос, и открывает там подпольный бойцовский клуб, в котором реальные деньги можно заработать, побеждая противников в поединках без правил, транслируемых в прямом эфире богатым клиентам.
• Подыскивая новую «звезду», Донака пытается приманить Тигра обещанием лёгкого заработка. Вхождение в этот мир выявляет самую тёмную сторону Чэнь Линь-Ху, но ему необходимы наличные. Его навыки помогают ему на ринге, но сможет ли он, сражаясь, сохранить в себе чистоту и добропорядочность?-
Продолжительность: 01:45:14
Качество видео: BDRip 720p [CHD]
Видеокодек: MPEG-4 AVC/H.264
Битрейт видео: ~ 4415 Кбит/сек
Размер кадра: 1280 x 532 (2.406) at 23.976 fps : 0.270 Bits/Pixel
Аудио #1: AC3 384 Кбит/сек (6ch), 48,0 КГц, 16 бит [Русский, MVO]
Аудио #2: DTS 1509 Кбит/сек (6ch), 48,0 КГц, 24 бит [Английский]
Дополнительно: Сохранены оригинальные чаптеры как на Blu-ray
Релиз:

Трейлер / Ролик

[youtube]http://www.youtube.com/v/lvMUE-YY7MA&fs=1[/youtube]

MediaInfo:

Уникальный идентификатор                 : 233653106098262175298466365462804142653 (0xAFC7F38C8CCE1281B7D5A7E301BB9A3D)
Полное имя                               : H:\BDRip'ы\Мастер тай-цзи  Man of Tai Chi  2013  ПМ  BDRip (720-1080p)\Master.tay-tszi.2013.P.BDRip.720p.NNM-CLUB.mkv
Формат                                   : Matroska
Версия формата                           : Version 2
Размер файла                             : 4,64 Гбайт
Продолжительность                        : 1 ч. 45 м.
Общий поток                              : 6310 Кбит/сек
Название фильма                          : Man.of.Tai.Chi.2013.BluRay.720p.DTS.x264-CHD
Дата кодирования                         : UTC 2013-11-26 03:05:43
Программа кодирования                    : mkvmerge v2.9.9 ('Tutu') built on Nov 25 2009 21:13:32
Библиотека кодирования                   : libebml v0.7.9 + libmatroska v0.8.1
Видео
Идентификатор                            : 1
Формат                                   : AVC
Формат/Информация                        : Advanced Video Codec
Профиль формата                          : [url=mailto:[email protected]][email protected][/url]
Параметр CABAC формата                   : Да
Параметр ReFrames формата                : 10 кадров
Идентификатор кодека                     : V_MPEG4/ISO/AVC
Продолжительность                        : 1 ч. 45 м.
Битрейт                                  : 4415 Кбит/сек
Ширина                                   : 1280 пикселей
Высота                                   : 532 пикселя
Соотношение сторон                       : 2,40:1
Режим частоты кадров                     : Постоянный
Частота кадров                           : 23,976 кадра/сек
Цветовое пространство                    : YUV
Субдискретизация насыщенности            : 4:2:0
Битовая глубина                          : 8 бит
Тип развёртки                            : Прогрессивная
Бит/(Пиксели*Кадры)                      : 0.270
Размер потока                            : 3,15 Гбайт (68%)
Заголовок                                : -=Release for NNM-CLUB.RU=-
Библиотека кодирования                   : x264 core 138 r2356 a1d3d17
Настройки программы                      : cabac=1 / ref=10 / deblock=1:-3:-3 / analyse=0x3:0x113 / me=umh / subme=10 / psy=1 / psy_rd=1.00:0.05 / mixed_ref=1 / me_range=32 / chroma_me=1 / trellis=2 / 8x8dct=1 / cqm=0 / deadzone=21,11 / fast_pskip=0 / chroma_qp_offset=-2 / threads=18 / lookahead_threads=1 / sliced_threads=0 / nr=0 / decimate=1 / interlaced=0 / bluray_compat=0 / constrained_intra=0 / bframes=4 / b_pyramid=2 / b_adapt=2 / b_bias=0 / direct=3 / weightb=1 / open_gop=0 / weightp=2 / keyint=250 / keyint_min=23 / scenecut=40 / intra_refresh=0 / rc=2pass / mbtree=0 / bitrate=4415 / ratetol=1.0 / qcomp=0.70 / qpmin=0 / qpmax=69 / qpstep=4 / cplxblur=20.0 / qblur=0.5 / ip_ratio=1.40 / pb_ratio=1.30 / aq=2:1.00
Язык                                     : English
Default                                  : Нет
Forced                                   : Нет
Аудио #1
Идентификатор                            : 2
Формат                                   : AC-3
Формат/Информация                        : Audio Coding 3
Расширение режима                        : CM (complete main)
Параметр Endianness формата              : Big
Идентификатор кодека                     : A_AC3
Продолжительность                        : 1 ч. 45 м.
Вид битрейта                             : Постоянный
Битрейт                                  : 384 Кбит/сек
Каналы                                   : 6 каналов
Расположение каналов                     : Front: L C R, Side: L R, LFE
Частота                                  : 48,0 КГц
Битовая глубина                          : 16 бит
Метод сжатия                             : С потерями
Размер потока                            : 289 Мбайт (6%)
Заголовок                                : AC3.384Kbps (6ch) Russian (Baibako)
Язык                                     : Russian
Default                                  : Да
Forced                                   : Нет
Аудио #2
Идентификатор                            : 3
Формат                                   : DTS
Формат/Информация                        : Digital Theater Systems
Режим                                    : 16
Параметр Endianness формата              : Big
Идентификатор кодека                     : A_DTS
Продолжительность                        : 1 ч. 45 м.
Вид битрейта                             : Постоянный
Битрейт                                  : 1509 Кбит/сек
Каналы                                   : 6 каналов
Расположение каналов                     : Front: L C R, Side: L R, LFE
Частота                                  : 48,0 КГц
Битовая глубина                          : 24 бит
Метод сжатия                             : С потерями
Задержка видео                           : 11 мс.
Размер потока                            : 1,11 Гбайт (24%)
Заголовок                                : DTS.1509.Kbps (6ch) English
Язык                                     : English
Default                                  : Нет
Forced                                   : Нет
Текст #1
Идентификатор                            : 4
Формат                                   : UTF-8
Идентификатор кодека                     : S_TEXT/UTF8
Идентификатор кодека/Информация          : UTF-8 Plain Text
Заголовок                                : Russian (Full)
Язык                                     : Russian
Default                                  : Нет
Forced                                   : Нет
Текст #2
Идентификатор                            : 5
Формат                                   : UTF-8
Идентификатор кодека                     : S_TEXT/UTF8
Идентификатор кодека/Информация          : UTF-8 Plain Text
Заголовок                                : English (SDH)
Язык                                     : English
Default                                  : Нет
Forced                                   : Нет
Текст #3
Идентификатор                            : 6
Формат                                   : UTF-8
Идентификатор кодека                     : S_TEXT/UTF8
Идентификатор кодека/Информация          : UTF-8 Plain Text
Заголовок                                : English (SDH-Colored)
Язык                                     : English
Default                                  : Нет
Forced                                   : Нет
Меню
00:00:00.000                             : en:00:00:00.000
00:04:07.664                             : en:00:04:07.664
00:09:17.182                             : en:00:09:17.182
00:15:33.391                             : en:00:15:33.391
00:20:25.558                             : en:00:20:25.558
00:27:11.296                             : en:00:27:11.296
00:33:31.176                             : en:00:33:31.176
00:39:35.957                             : en:00:39:35.957
00:46:23.990                             : en:00:46:23.990
00:54:39.985                             : en:00:54:39.985
01:02:01.343                             : en:01:02:01.343
01:10:25.221                             : en:01:10:25.221
01:16:37.927                             : en:01:16:37.927
01:20:23.652                             : en:01:20:23.652
01:27:12.477                             : en:01:27:12.477
01:37:58.247                             : en:01:37:58.247

x264 iNFO

x264 [info]: profile High, level 4.1
x264 [info]: frame I:2485 Avg QP:11.50 size:115243
x264 [info]: frame P:47352 Avg QP:13.61 size: 39984
x264 [info]: frame B:101567 Avg QP:15.87 size: 12847

[Цитировать]



Показать сообщения:    

Текущее время: 05-Дек 13:34

Часовой пояс: UTC + 3


Вы не можете начинать темы
Вы не можете отвечать на сообщения
Вы не можете редактировать свои сообщения
Вы не можете удалять свои сообщения
Вы не можете голосовать в опросах
Вы не можете прикреплять файлы к сообщениям
Вы не можете скачивать файлы

!ВНИМАНИЕ!
Сайт не предоставляет электронные версии произведений, а занимается лишь коллекционированием и каталогизацией ссылок, присылаемых и публикуемых на форуме нашими читателями. Если вы являетесь правообладателем какого-либо представленного материала и не желаете, чтобы ссылка на него находилась в нашем каталоге, свяжитесь с нами, и мы незамедлительно удалим ее. Файлы для обмена на трекере предоставлены пользователями сайта, и администрация не несет ответственности за их содержание. Просьба не заливать файлы, защищенные авторскими правами, а также файлы нелегального содержания!