[ Сегодня идет свободное скачивание без начисления Download ]


Статистика раздачи
Нет
 
   
 
Top  
 
 
-Поцелуй мамочку на ночь / Dark Touch (2013) WEB-DL [H.264/720p-LQ]- -Год выпуска: 2013
Производство: Франция, Ирландия, Швеция / Element Pictures, Eurimages, Ex Nihilo
Жанр: ужасы, триллер
Перевод: Профессиональный (многоголосый)
Язык субтитров: Английские (Full)
Субтитры: Вшитые отключаемые-Дата мировой премьеры: 18 апреля 2013,
Дата российской премьеры: 28 ноября 2013, «P&I Films»
Дата выхода DVD/Blu Ray: N/A-Режиссер: Марина де Ван
Актеры: Мари Мисси Китинг, Марселла Планкетт, Падрейк Делани, Клер Баррет, Роберт Доннелли, Ричард Дормер, Шарлотта Фливхолм, Элла Хэйес, Марк Хубермэн, Кэти Кирби-Описание фильма:
Однажды вечером в доме на окраине начинают происходить невероятно ужасные и таинственные вещи, в ходе чего погибают его обитатели, родители и младший брат 11-летней девочки Ниам. Полиция считает, что это дело рук убийц-вандалов, и не придаёт значения словам Ниам, когда та рассказывает о беспощадной ярости дома. Девочку забирают к себе друзья её родителей, которые, окружив Ниам любовью и вниманием, стараются облегчить её боль. Но Ниам не оставляют в покое. Она постоянно замечает признаки подкрадывающейся опасности, окружающие её предметы пропитаны жестокой яростью, которая вскоре вновь прорывается и начинает жестокую расправу, в поисках всё новых жертв…-
Продолжительность: 01:31:27
Качество видео: WEB-DLRip [720p]-Видео: MPEG-4 AVC/H.264, 1280x536, 3491 kb/s; 24.000 fps
Аудио#1: [RUS]: AC3 2.0; 192.00 kbps; 48.0 kHz; 16-bits [online movies]
Аудио#2: [ENG]: AC3 5.1; 384.00 kbps; 48.0 kHz; 16-bits [original]
Дополнительно: Сохранены оригинальные чаптеры.

MediaInfo:

General
Unique ID                                : 250334546513109314535448024749553610180 (0xBC54AE0F86DA293881946FCBA6F5EDC4)
Complete name                            : F:\Dark.Touch.2013.WEB-DL.720p.mkv
Format                                   : Matroska
Format version                           : Version 2
File size                                : 2.65 GiB
Duration                                 : 1h 31mn
Overall bit rate                         : 4 150 Kbps
Encoded date                             : UTC 2013-11-29 09:26:34
Writing application                      : mkvmerge v5.8.0 ('No Sleep / Pillow') built on Sep  2 2012 15:37:04
Writing library                          : libebml v1.2.3 + libmatroska v1.3.0
Attachment                               : Yes
Video
ID                                       : 1
Format                                   : AVC
Format/Info                              : Advanced Video Codec
Format profile                           : [url=mailto:Main@L3.1]Main@L3.1[/url]
Format settings, CABAC                   : No
Format settings, ReFrames                : 2 frames
Muxing mode                              : Header stripping
Codec ID                                 : V_MPEG4/ISO/AVC
Duration                                 : 1h 31mn
Bit rate                                 : 3 491 Kbps
Width                                    : 1 280 pixels
Height                                   : 536 pixels
Display aspect ratio                     : 2.40:1
Frame rate                               : 24.000 fps
Color space                              : YUV
Chroma subsampling                       : 4:2:0
Bit depth                                : 8 bits
Scan type                                : Progressive
Bits/(Pixel*Frame)                       : 0.212
Stream size                              : 2.23 GiB (84%)
Language                                 : English
Default                                  : Yes
Forced                                   : No
Color primaries                          : BT.709-5, BT.1361, IEC 61966-2-4, SMPTE RP177
Transfer characteristics                 : BT.709-5, BT.1361
Matrix coefficients                      : BT.709-5, BT.1361, IEC 61966-2-4 709, SMPTE RP177
Audio #1
ID                                       : 2
Format                                   : AC-3
Format/Info                              : Audio Coding 3
Mode extension                           : CM (complete main)
Format settings, Endianness              : Big
Muxing mode                              : Header stripping
Codec ID                                 : A_AC3
Duration                                 : 1h 31mn
Bit rate mode                            : Constant
Bit rate                                 : 192 Kbps
Channel(s)                               : 2 channels
Channel positions                        : Front: L R
Sampling rate                            : 48.0 KHz
Bit depth                                : 16 bits
Compression mode                         : Lossy
Stream size                              : 126 MiB (5%)
Title                                    : online movies
Language                                 : Russian
Default                                  : Yes
Forced                                   : Yes
Audio #2
ID                                       : 3
Format                                   : AC-3
Format/Info                              : Audio Coding 3
Mode extension                           : CM (complete main)
Format settings, Endianness              : Big
Muxing mode                              : Header stripping
Codec ID                                 : A_AC3
Duration                                 : 1h 31mn
Bit rate mode                            : Constant
Bit rate                                 : 384 Kbps
Channel(s)                               : 6 channels
Channel positions                        : Front: L C R, Side: L R, LFE
Sampling rate                            : 48.0 KHz
Bit depth                                : 16 bits
Compression mode                         : Lossy
Stream size                              : 251 MiB (9%)
Title                                    : original
Language                                 : English
Default                                  : No
Forced                                   : No
Text
ID                                       : 4
Format                                   : UTF-8
Codec ID                                 : S_TEXT/UTF8
Codec ID/Info                            : UTF-8 Plain Text
Title                                    : full
Language                                 : English
Default                                  : No
Forced                                   : No
Menu
00:00:00.000                             : en:Chapter 1
00:10:53.000                             : en:Chapter 2
00:19:41.000                             : en:Chapter 3
00:30:47.000                             : en:Chapter 4
00:39:35.000                             : en:Chapter 5
00:50:33.000                             : en:Chapter 6
01:00:52.000                             : en:Chapter 7
01:09:14.000                             : en:Chapter 8
01:21:12.000                             : en:Chapter 9
01:27:40.000                             : en:Chapter 10
Скриншоты:
[th]http://img.torrentsclub.org/di/KMN8/82a27e0bf46b270...3c4f5ab.png[/th] [th]http://img.torrentsclub.org/di/M8BF/9146b2872ed2b61...a47efa1.png[/th] [th]http://img.torrentsclub.org/di/W8UA/b6b35a4cb1aecfd...c6c4a77.png[/th]
-

[Цитировать]

Топик был перенесен из форума Новинки кинопроката в форум Ужасы
Henkok



Показать сообщения:    

Текущее время: 09-Дек 16:36

Часовой пояс: UTC + 3


Вы не можете начинать темы
Вы не можете отвечать на сообщения
Вы не можете редактировать свои сообщения
Вы не можете удалять свои сообщения
Вы не можете голосовать в опросах
Вы не можете прикреплять файлы к сообщениям
Вы не можете скачивать файлы

!ВНИМАНИЕ!
Сайт не предоставляет электронные версии произведений, а занимается лишь коллекционированием и каталогизацией ссылок, присылаемых и публикуемых на форуме нашими читателями. Если вы являетесь правообладателем какого-либо представленного материала и не желаете, чтобы ссылка на него находилась в нашем каталоге, свяжитесь с нами, и мы незамедлительно удалим ее. Файлы для обмена на трекере предоставлены пользователями сайта, и администрация не несет ответственности за их содержание. Просьба не заливать файлы, защищенные авторскими правами, а также файлы нелегального содержания!