[ Сегодня идет свободное скачивание без начисления Download ]


Статистика раздачи
Нет
 
   
 
Top  
 
 
-Несвятые / Ain't Them Bodies Saints (2013) WEB-DL [ 720P]- Год выпуска: 2013
Жанр: Драма, Мелодрама, Криминал
Перевод: Двуголосый закадровый, любительский
Озвучка / Автор перевода: Андрей Питерский и Камила Юнусова
Язык субтитров: Английский вшитые отключаемые
Дата мировой премьеры: 20.01.2013
Режиссер: Дэвид Лоури
Актеры: Кейси Аффлек, Руни Мара, Бен Фостер, Кит Кэрредин, Кеннади Смит, Джеклинн Смит, Нэйт Паркер, Роберт Лонгстрит, Чарльз Бэйкер, Августин Фриззелл
Описание фильма:
Техас, 1970-е годы. Попав в засаду, трое молодых преступников тяжело ранят одного из окруживших их полицейских. Главарь банды Боб Малдун берет всю вину на себя, хотя роковой выстрел сделала его девушка Рут, и отправляется за решетку на много лет. Уже в тюрьме он узнает, что у него родилась дочь Сильвия. Чтобы увидеть девочку Боб совершает побег за побегом, но вырваться на свободу ему удается только через четыре долгих года. Его следы ведут в противоположном от родных мест направлении, однако техасская полиция (и прежде всего Патрик Смоллс — офицер, раненный в той давней перестрелке) считает, что появиться беглец может только там, где находится маленькая Сильвия. Все готово к охоте на Малдуна, но, оказывается, что не только служители закона хотят заставить Боба сполна заплатить по давним счетам.

Продолжительность: 01:35:58
Качество видео: WEB-DL
Видеокодек: MPEG-4 AVC/H.264
Битрейт видео: ~3870 Kb/s
Размер кадра: 1280x528
Аудио 1: MP3, 192 kb/s (2 ch) Русский перевод двухголосный (любительский)
Аудио 2: AC3, 384 kb/s (2 ch) Английский оригинал

Mediainfo

Общее
Уникальный идентификатор : 249051791628483963449437574563683879976 (0xBB5DA15CA7C65FF09BE0E645FC63CC28)
Полное имя : E:\Necvet\Aint.Them.Bodies.Saints.2013.WEBDL.720p.mkv
Формат : Matroska
Версия формата : Version 4 / Version 2
Размер файла : 3,04 Гбайт
Продолжительность : 1 ч. 35 м.
Общий поток : 4536 Кбит/сек
Дата кодирования : UTC 2013-11-29 09:09:30
Программа кодирования : mkvmerge v6.1.0 ('Old Devil') built on Mar 4 2013 09:10:42
Библиотека кодирования : libebml v1.3.0 + libmatroska v1.4.0
Видео
Идентификатор : 1
Формат : AVC
Формат/Информация : Advanced Video Codec
Профиль формата : Main@L3.1
Параметр CABAC формата : Нет
Параметр ReFrames формата : 2 кадра
Идентификатор кодека : V_MPEG4/ISO/AVC
Продолжительность : 1 ч. 35 м.
Битрейт : 3870 Кбит/сек
Ширина : 1280 пикселей
Высота : 528 пикселей
Соотношение сторон : 2,40:1
Режим частоты кадров : Постоянный
Частота кадров : 23,976 кадра/сек
Цветовое пространство : YUV
Субдискретизация насыщенности : 4:2:0
Битовая глубина : 8 бит
Тип развёртки : Прогрессивная
Бит/(Пиксели*Кадры) : 0.239
Размер потока : 2,59 Гбайт (85%)
Язык : English
Default : Да
Forced : Нет
Основные цвета : BT.709
Характеристики трансфера : BT.709
Коэффициенты матрицы : BT.709
Аудио #1
Идентификатор : 2
Формат : MPEG Audio
Версия формата : Version 1
Профиль формата : Layer 3
Режим : Joint stereo
Идентификатор кодека : A_MPEG/L3
Идентификатор кодека/Подсказка : MP3
Продолжительность : 1 ч. 35 м.
Вид битрейта : Постоянный
Битрейт : 192 Кбит/сек
Каналы : 2 канала
Частота : 48,0 КГц
Метод сжатия : С потерями
Размер потока : 132 Мбайт (4%)
Язык : Russian
Default : Да
Forced : Нет
Аудио #2
Идентификатор : 3
Формат : AC-3
Формат/Информация : Audio Coding 3
Расширение режима : CM (complete main)
Параметр Endianness формата : Big
Идентификатор кодека : A_AC3
Продолжительность : 1 ч. 35 м.
Вид битрейта : Постоянный
Битрейт : 384 Кбит/сек
Каналы : 6 каналов
Расположение каналов : Front: L C R, Side: L R, LFE
Частота : 48,0 КГц
Битовая глубина : 16 бит
Метод сжатия : С потерями
Размер потока : 264 Мбайт (8%)
Язык : English
Default : Нет
Forced : Нет
Текст
Идентификатор : 4
Формат : UTF-8
Идентификатор кодека : S_TEXT/UTF8
Идентификатор кодека/Информация : UTF-8 Plain Text
Язык : English
Default : Нет
Forced : Нет
Меню
00:00:00.000 : en:Chapter 1
00:10:56.000 : en:Chapter 2
00:20:17.000 : en:Chapter 3
00:32:17.000 : en:Chapter 4
00:42:39.000 : en:Chapter 5
00:49:32.000 : en:Chapter 6
00:59:15.000 : en:Chapter 7
01:09:23.000 : en:Chapter 8
01:17:35.000 : en:Chapter 9
01:30:41.000 : en:Chapter 10
Скриншоты:
[th]http://img.torrentsclub.org/di/67PS/7bj2.png[/th] [th]http://img.torrentsclub.org/di/KMWV/jrbs.png[/th] [th]http://img.torrentsclub.org/di/1OVD/qe2g.png[/th]
Время раздачи: С 07:00 до 23:00

[Цитировать]

Топик был перенесен из форума Новинки кинопроката в форум Драма
Henkok



Показать сообщения:    

Текущее время: 08-Дек 23:07

Часовой пояс: UTC + 3


Вы не можете начинать темы
Вы не можете отвечать на сообщения
Вы не можете редактировать свои сообщения
Вы не можете удалять свои сообщения
Вы не можете голосовать в опросах
Вы не можете прикреплять файлы к сообщениям
Вы не можете скачивать файлы

!ВНИМАНИЕ!
Сайт не предоставляет электронные версии произведений, а занимается лишь коллекционированием и каталогизацией ссылок, присылаемых и публикуемых на форуме нашими читателями. Если вы являетесь правообладателем какого-либо представленного материала и не желаете, чтобы ссылка на него находилась в нашем каталоге, свяжитесь с нами, и мы незамедлительно удалим ее. Файлы для обмена на трекере предоставлены пользователями сайта, и администрация не несет ответственности за их содержание. Просьба не заливать файлы, защищенные авторскими правами, а также файлы нелегального содержания!