[ Сегодня идет свободное скачивание без начисления Download ]


Статистика раздачи
Нет
 
   
 
Top  
 
 
-Спасти Санту / Saving Santa (2013) BDRip
«На машине времени за Новым годом!»
- Год выпуска: 2013
Производство: Великобритания / Gateway Films, Prana Animation Studios, Prana Studios
Жанр: Mультфильм, Мьюзикл, Комедия, Семейный
Перевод: Дублированный (Чистый звук)
Субтитры: Вшитые отключаемые
Язык субтитров: Английский, Немецкий-Дата мировой премьеры: 5 ноября 2013 (США)
Дата российской премьеры: 21 ноября 2013, «Наше Кино»
Дата выхода DVD релиза: 17 декабря 2013, «CD Land»-Режиссер: Леон Джусен, Аарон Силман-Продюсер: Тони Ноттаг, Ник Симунэк, Терри Стоун-Роли озвучивали: Мартин Фриман, Тим Карри, Тим Конуэй, Пэм Феррис, Эшли Тисдейл. Джоан Коллинз, Ксавье Алькан, Крис Барри, Ноэль Кларк, Ребекка Фердинандо ...-Роли дублировали: Владислав Лисовец, Алексей Чумаков, Михаил Пореченков, Юлия Ковальчук ...-Описание фильма:
Эльф Бернард — очень мил, весел, и… слегка несерьёзен. Но ему придется измениться, ведь у него впереди потрясающее и очень опасное приключение! Кто-то собирается похитить Санту и его волшебные сани, в которых можно перемещаться в разные эпохи. А без Санты Новый год никогда не наступит! Бернарду придётся переместиться во времени, сразиться со злодеем, остановить его армию, изменить прошлое, спасти Новый год и стать настоящим героем!-[kp]665100[/kp] [imdb]tt2204315[/imdb]
Продолжительность: 01:23:54
Качество видео: BDRip 720р-LQ
Видеокодек: MPEG-4 AVC/H.264
Битрейт видео: ~3001 Кбит/сек
Размер кадра: 1280 x 688 (1.860) at 23.976 fps: 0.142 Bits/Pixel
Аудио #1: AC3 192 Кбит/сек (2ch), 48,0 КГц, 16 бит [Русский, Дубляж]
Аудио #2: DTS 1509 Кбит/сек (6ch), 48,0 КГц, 24 бит [Английский]
Дополнительно: Сохранены оригинальные чаптеры как на Blu-ray

MediaInfo:

Уникальный идентификатор : 188451251747938688793871493605722563594 (0x8DC66410B3DCC07D8D23A88C9DE2240A)
Полное имя : H:\BDRip'ы\Спасти Санту Saving Santa 2013 ДБ (Line) BDRip\Spasti.Santu.2013.D.BDRip.720p.LQ.NNM-CLUB.mkv
Формат : Matroska
Версия формата : Version 2
Размер файла : 2,75 Гбайт
Продолжительность : 1 ч. 23 м.
Общий поток : 4698 Кбит/сек
Название фильма : Spasti.Santu.2013.D.BDRip.720p.NNM-CLUB
Дата кодирования : UTC 2013-11-27 18:39:45
Программа кодирования : mkvmerge v2.9.9 ('Tutu') built on Nov 25 2009 21:13:32
Библиотека кодирования : libebml v0.7.9 + libmatroska v0.8.1
Видео
Идентификатор : 1
Формат : AVC
Формат/Информация : Advanced Video Codec
Профиль формата : [email protected]
Параметр CABAC формата : Да
Параметр ReFrames формата : 5 кадров
Идентификатор кодека : V_MPEG4/ISO/AVC
Продолжительность : 1 ч. 23 м.
Битрейт : 3001 Кбит/сек
Ширина : 1280 пикселей
Высота : 688 пикселей
Соотношение сторон : 1,85:1
Режим частоты кадров : Постоянный
Частота кадров : 23,976 кадра/сек
Цветовое пространство : YUV
Субдискретизация насыщенности : 4:2:0
Битовая глубина : 8 бит
Тип развёртки : Прогрессивная
Бит/(Пиксели*Кадры) : 0.142
Размер потока : 1,70 Гбайт (62%)
Заголовок : -=Release for NNM-CLUB.RU=-
Библиотека кодирования : x264 core 140 r2377 1ca7bb9
Настройки программы : cabac=1 / ref=5 / deblock=1:0:0 / analyse=0x3:0x133 / me=umh / subme=7 / psy=1 / psy_rd=1.00:0.00 / mixed_ref=1 / me_range=16 / chroma_me=1 / trellis=1 / 8x8dct=1 / cqm=0 / deadzone=21,11 / fast_pskip=0 / chroma_qp_offset=-2 / threads=12 / lookahead_threads=2 / sliced_threads=0 / nr=0 / decimate=1 / interlaced=0 / bluray_compat=0 / constrained_intra=0 / bframes=3 / b_pyramid=2 / b_adapt=1 / b_bias=0 / direct=1 / weightb=1 / open_gop=0 / weightp=2 / keyint=240 / keyint_min=23 / scenecut=40 / intra_refresh=0 / rc_lookahead=40 / rc=2pass / mbtree=1 / bitrate=3001 / ratetol=1.0 / qcomp=0.60 / qpmin=10 / qpmax=69 / qpstep=4 / cplxblur=20.0 / qblur=0.5 / ip_ratio=1.40 / aq=1:1.00
Язык : English
Default : Нет
Forced : Нет
Аудио #1
Идентификатор : 2
Формат : AC-3
Формат/Информация : Audio Coding 3
Расширение режима : CM (complete main)
Параметр Endianness формата : Big
Идентификатор кодека : A_AC3
Продолжительность : 1 ч. 23 м.
Вид битрейта : Постоянный
Битрейт : 192 Кбит/сек
Каналы : 2 канала
Расположение каналов : Front: L R
Частота : 48,0 КГц
Битовая глубина : 16 бит
Метод сжатия : С потерями
Размер потока : 115 Мбайт (4%)
Заголовок : AC3.192.Kbps (2ch) Russian (Line)
Язык : Russian
Default : Да
Forced : Нет
Аудио #2
Идентификатор : 3
Формат : DTS
Формат/Информация : Digital Theater Systems
Режим : 16
Параметр Endianness формата : Big
Идентификатор кодека : A_DTS
Продолжительность : 1 ч. 23 м.
Вид битрейта : Постоянный
Битрейт : 1509 Кбит/сек
Каналы : 6 каналов
Расположение каналов : Front: L C R, Side: L R, LFE
Частота : 48,0 КГц
Битовая глубина : 16 бит
Метод сжатия : С потерями
Задержка видео : 11 мс.
Размер потока : 906 Мбайт (32%)
Заголовок : DTS.1509.Kbps (6ch) English
Язык : English
Default : Нет
Forced : Нет
Текст #1
Идентификатор : 4
Формат : UTF-8
Идентификатор кодека : S_TEXT/UTF8
Идентификатор кодека/Информация : UTF-8 Plain Text
Заголовок : English (Full)
Язык : English
Default : Нет
Forced : Нет
Текст #2
Идентификатор : 5
Формат : UTF-8
Идентификатор кодека : S_TEXT/UTF8
Идентификатор кодека/Информация : UTF-8 Plain Text
Заголовок : German (Full)
Язык : German
Default : Нет
Forced : Нет
Меню
00:00:00.000 : en:00:00:00.000
00:09:08.381 : en:00:09:08.381
00:15:11.118 : en:00:15:11.118
00:22:06.700 : en:00:22:06.700
00:29:23.428 : en:00:29:23.428
00:39:12.308 : en:00:39:12.308
00:47:16.667 : en:00:47:16.667
00:54:38.525 : en:00:54:38.525
01:03:50.618 : en:01:03:50.618
01:10:20.174 : en:01:10:20.174
01:16:39.761 : en:01:16:39.761
01:19:49.784 : en:01:19:49.784

[Цитировать]

Топик был перенесен из форума Новинки кинопроката в форум Зарубежные мультфильмы
Henkok



Показать сообщения:    

Текущее время: 06-Дек 13:20

Часовой пояс: UTC + 3


Вы не можете начинать темы
Вы не можете отвечать на сообщения
Вы не можете редактировать свои сообщения
Вы не можете удалять свои сообщения
Вы не можете голосовать в опросах
Вы не можете прикреплять файлы к сообщениям
Вы не можете скачивать файлы

!ВНИМАНИЕ!
Сайт не предоставляет электронные версии произведений, а занимается лишь коллекционированием и каталогизацией ссылок, присылаемых и публикуемых на форуме нашими читателями. Если вы являетесь правообладателем какого-либо представленного материала и не желаете, чтобы ссылка на него находилась в нашем каталоге, свяжитесь с нами, и мы незамедлительно удалим ее. Файлы для обмена на трекере предоставлены пользователями сайта, и администрация не несет ответственности за их содержание. Просьба не заливать файлы, защищенные авторскими правами, а также файлы нелегального содержания!