[ Сегодня идет свободное скачивание без начисления Download ]


Статистика раздачи
Нет
 
   
 
Top  
 
 
-Сталинград (2013) DVDRip- Год выпуска: 2013
Производство: Россия, Арт Пикчерс Студия, Нон-стоп Продакшн, Main Road Post , Illusion Industries грим
Жанр: Военный, Драма, Боевик
Перевод: Не требуется (русский) | Лицензия |
Субтитры: Отсутствуют
Дата мировой премьеры: 10 октября 2013
Дата российской премьеры: 10 октября 2013, «WDSSPR»
Дата выхода DVD релиза: 4 декабря 2013, «Lizard Cinema Trade»
Режиссер: Фёдор Бондарчук
Продюсер: Александр Роднянский, Дмитрий Рудовский, Сергей Мелькумов
Актеры: Пётр Фёдоров, Томас Кречманн, Мария Смольникова, Яна Студилина, Дмитрий Лысенков, Алексей Барабаш, Андрей Смоляков, Сергей Бондарчук, Олег Волку, Хайнер Лаутербах, Олег Тилькин, Ян Кузьмин, Кирилл Варакса, Полина Райкина, Юрий Уткин, Олег Малышев
Описание фильма:
1942-й год. Сталинград. Советские войска планируют контрнаступление на немецкие части, занявшие правый берег Волги. Наступление сорвано. Лишь разведчикам под командованием капитана Громова удается перебраться на другой берег и закрепиться в одном из домов. Им дан приказ удержать его любой ценой. Кроме нескольких чудом уцелевших советских солдат они находят в доме его последнюю жительницу — 19-летнюю Катю. Приказ отбить дом, захваченный противником, получает немецкий офицер Кан. На фоне одного из самых кровопролитных сражений в истории человечества разворачиваются истории любви и драматического противостояния характеров.

Продолжительность: 02:05:29
Качество видео: DVDRip
Видеокодек: XviD
Битрейт видео: 690 kb/s
Размер кадра: 640x272
Аудиокодек: MP3, 2 ch
Битрейт аудио: 128 kb/s

MI

Общее
Полное имя                               : D:\Раздачи\Stalingrad.2013.DVDRip.745MB.NNM-CLUB.avi
Формат                                   : AVI
Формат/Информация                        : Audio Video Interleave
Размер файла                             : 742 Мбайт
Продолжительность                        : 2 ч. 5 м.
Общий поток                              : 826 Кбит/сек
Программа кодирования                    : VirtualDubMod 1.5.10.3 | (build 2550/release)
Библиотека кодирования                   : VirtualDubMod build 2550/release
Видео
Идентификатор                            : 0
Формат                                   : MPEG-4 Visual
Профиль формата                          : Advanced [email protected]
Параметр BVOP формата                    : 1
Параметр QPel формата                    : Нет
Параметр GMC формата                     : Без точки перехода
Параметр матрицы формата                 : Выборочная
Идентификатор кодека                     : XVID
Идентификатор кодека/Подсказка           : XviD
Продолжительность                        : 2 ч. 5 м.
Битрейт                                  : 689 Кбит/сек
Ширина                                   : 640 пикселей
Высота                                   : 272 пикселя
Соотношение сторон                       : 2,35:1
Частота кадров                           : 25,000 кадров/сек
Цветовое пространство                    : YUV
Субдискретизация насыщенности            : 4:2:0
Битовая глубина                          : 8 бит
Тип развёртки                            : Прогрессивная
Метод сжатия                             : С потерями
Бит/(Пиксели*Кадры)                      : 0.158
Размер потока                            : 618 Мбайт (83%)
Библиотека кодирования                   : XviD 1.2.1 (UTC 2008-12-04)
Аудио
Идентификатор                            : 1
Формат                                   : MPEG Audio
Версия формата                           : Version 1
Профиль формата                          : Layer 3
Идентификатор кодека                     : 55
Идентификатор кодека/Подсказка           : MP3
Продолжительность                        : 2 ч. 5 м.
Вид битрейта                             : Постоянный
Битрейт                                  : 128 Кбит/сек
Каналы                                   : 2 канала
Частота                                  : 48,0 КГц
Метод сжатия                             : С потерями
Размер потока                            : 115 Мбайт (15%)
Выравнивание                             : Соединение по промежуткам
Продолжительность промежутка             : 40  мс. (1,00 видеокадр)
Время предзагрузки промежутка            : 504  мс.
Библиотека кодирования                   : LAME3.99r
Настройки программы                      : -m s -V 4 -q 2 -lowpass 17 -b 128

Скриншоты

[Цитировать]

Топик был перенесен из форума Новинки кинопроката в форум Военные (отечественные)
Henkok



Показать сообщения:    

Текущее время: 06-Дек 03:45

Часовой пояс: UTC + 3


Вы не можете начинать темы
Вы не можете отвечать на сообщения
Вы не можете редактировать свои сообщения
Вы не можете удалять свои сообщения
Вы не можете голосовать в опросах
Вы не можете прикреплять файлы к сообщениям
Вы не можете скачивать файлы

!ВНИМАНИЕ!
Сайт не предоставляет электронные версии произведений, а занимается лишь коллекционированием и каталогизацией ссылок, присылаемых и публикуемых на форуме нашими читателями. Если вы являетесь правообладателем какого-либо представленного материала и не желаете, чтобы ссылка на него находилась в нашем каталоге, свяжитесь с нами, и мы незамедлительно удалим ее. Файлы для обмена на трекере предоставлены пользователями сайта, и администрация не несет ответственности за их содержание. Просьба не заливать файлы, защищенные авторскими правами, а также файлы нелегального содержания!