[ Сегодня идет свободное скачивание без начисления Download ]


Статистика раздачи
Нет
 
   
 
Top  
 
 
-Перси Джексон и Море чудовищ / Percy Jackson: Sea of Monsters (2013) BDRip«Где Боги - там и монстры»- Год выпуска: 2013
Производство: США - Fox 2000 Pictures, Sunswept Entertainment, 1492 Pictures
Жанр: Фэнтези, Приключения, Семейный
Перевод: Дублированный (Лицензия Blu-ray EUR)
Субтитры: Отсутствуют
Дата мировой премьеры: 7 августа 2013
Дата российской премьеры: 22 августа 2013, «Двадцатый Век Фокс СНГ»
Дата выхода DVD релиза: 12 декабря 2013, «Двадцатый Век Фокс СНГ»
Дата выхода BLU-RAY релиза: 12 декабря 2013, «Двадцатый Век Фокс СНГ»
Режиссер: Тор Фройденталь
Продюсер: Майкл Барнатан, Крис Коламбус, Карен Розенфельт
Актеры: Логан Лерман, Александра Даддарио, Дуглас Смит, Ливэн Рамбин, Брэндон Т. Джексон, Джейк Эйбел, Энтони Хэд, Стэнли Туччи, Коннор Крэш Данн, Палома Квиатковски, Нэйтан Филлион, Алиша Ньютон, Бьорн Йервуд, Сэмюэл Браун
Роли дублировали: Глеб Гаврилов, Игорь Сергеев, Станислав Концевич, Валерий Смекалов
Описание фильма:
Лагерь полукровок атакует Люк Кастеллан, который раскрывает свои планы по уничтожению горы Олимп. Наставник Перси, Хирон узнает, что Люк отравил волшебное дерево, которое отвечает за барьер, защищающий Лагерь Полукровок, и которое создано из Талии Грейс, дочери Зевса, убитой циклопом. Аннабет Чейз выясняет, что Золотое Руно может восстановить дерево, и директор лагеря, Дионис, посылает Клариссу Ла Ру, дочь Ареса и соперницу Перси, найти его…- -Продолжительность: 01:46:08
Качество видео: BDRip
Видеокодек: MPEG-4 AVC/H.264
Битрейт видео: ~15,0 Мбит/сек
Размер кадра: 1920x1080
Аудио 1: AC3 5.1, 640 kbps [Русский]
Аудио 2: AC3 5.1, 448 kbps [Украинский]
Аудио 3: AC3 5.1, 640 kbps [Английский]-

Media info:

Общее
Уникальный идентификатор : 239057004671493668142802282964980869542 (0xB3D8B451AC5A217DA9445229090029A6)
Полное имя : F:\my films\Percy_Jackson_Sea_Of_Monsters_3D.mkv
Формат : Matroska
Версия формата : Version 2
Размер файла : 12,7 Гбайт
Продолжительность : 1 ч. 46 м.
Общий поток : 17,1 Мбит/сек
Название фильма : Percy_Jackson_Sea_Of_Monsters_3D_Crop_O/U
Дата кодирования : UTC 2013-11-29 16:32:25
Программа кодирования : mkvmerge v5.7.0 ('The Whirlwind') built on Aug 7 2012 14:11:40
Библиотека кодирования : libebml v1.2.3 + libmatroska v1.3.0
Видео
Идентификатор : 1
Формат : AVC
Формат/Информация : Advanced Video Codec
Профиль формата : [email protected]
Параметр CABAC формата : Да
Параметр ReFrames формата : 4 кадра
Идентификатор кодека : V_MPEG4/ISO/AVC
Продолжительность : 1 ч. 46 м.
Битрейт : 15,0 Мбит/сек
Ширина : 1920 пикселей
Высота : 1080 пикселей
Соотношение сторон : 16:9
Режим частоты кадров : Постоянный
Частота кадров : 23,976 кадра/сек
Цветовое пространство : YUV
Субдискретизация насыщенности : 4:2:0
Битовая глубина : 8 бит
Тип развёртки : Прогрессивная
Бит/(Пиксели*Кадры) : 0.302
Размер потока : 11,1 Гбайт (88%)
Заголовок : rip by I/N
Библиотека кодирования : x264 core 128 r2216M 198a7ea
Настройки программы : cabac=1 / ref=4 / deblock=1:-3:-3 / analyse=0x3:0x133 / me=umh / subme=10 / psy=1 / psy_rd=1.00:0.15 / mixed_ref=1 / me_range=32 / chroma_me=1 / trellis=2 / 8x8dct=1 / cqm=0 / deadzone=21,11 / fast_pskip=1 / chroma_qp_offset=-3 / threads=8 / lookahead_threads=1 / sliced_threads=0 / nr=0 / decimate=1 / interlaced=0 / bluray_compat=0 / constrained_intra=0 / bframes=6 / b_pyramid=2 / b_adapt=2 / b_bias=0 / direct=3 / weightb=1 / open_gop=0 / weightp=2 / keyint=230 / keyint_min=23 / scenecut=40 / intra_refresh=0 / rc_lookahead=60 / rc=crf / mbtree=1 / crf=17.0 / qcomp=0.60 / qpmin=0 / qpmax=69 / qpstep=4 / vbv_maxrate=40000 / vbv_bufsize=30000 / crf_max=30.0 / nal_hrd=none / ip_ratio=1.40 / aq=1:1.00
Default : Да
Forced : Нет
Аудио #1
Идентификатор : 2
Формат : AC-3
Формат/Информация : Audio Coding 3
Расширение режима : CM (complete main)
Параметр Endianness формата : Big
Идентификатор кодека : A_AC3
Продолжительность : 1 ч. 46 м.
Вид битрейта : Постоянный
Битрейт : 640 Кбит/сек
Каналы : 6 каналов
Расположение каналов : Front: L C R, Side: L R, LFE
Частота : 48,0 КГц
Битовая глубина : 16 бит
Метод сжатия : С потерями
Задержка видео : 700 мс.
Размер потока : 486 Мбайт (4%)
Заголовок : Дубляж
Язык : Russian
Default : Да
Forced : Нет
Аудио #2
Идентификатор : 3
Формат : AC-3
Формат/Информация : Audio Coding 3
Расширение режима : CM (complete main)
Параметр Endianness формата : Big
Идентификатор кодека : A_AC3
Продолжительность : 1 ч. 46 м.
Вид битрейта : Постоянный
Битрейт : 448 Кбит/сек
Каналы : 6 каналов
Расположение каналов : Front: L C R, Side: L R, LFE
Частота : 48,0 КГц
Битовая глубина : 16 бит
Метод сжатия : С потерями
Задержка видео : 700 мс.
Размер потока : 340 Мбайт (3%)
Заголовок : Дубляж
Язык : Ukrainian
Default : Нет
Forced : Нет
Аудио #3
Идентификатор : 4
Формат : AC-3
Формат/Информация : Audio Coding 3
Расширение режима : CM (complete main)
Параметр Endianness формата : Big
Идентификатор кодека : A_AC3
Продолжительность : 1 ч. 46 м.
Вид битрейта : Постоянный
Битрейт : 640 Кбит/сек
Каналы : 6 каналов
Расположение каналов : Front: L C R, Side: L R, LFE
Частота : 48,0 КГц
Битовая глубина : 16 бит
Метод сжатия : С потерями
Размер потока : 486 Мбайт (4%)
Заголовок : Original
Язык : English
Default : Нет
Forced : Нет
Меню
00:00:00.000 : en:(01)00:00:00:000
00:04:06.454 : en:(02)00:04:06:454
00:06:44.070 : en:(03)00:06:44:070
00:09:32.697 : en:(04)00:09:32:697
00:13:54.124 : en:(05)00:13:54:124
00:19:18.157 : en:(06)00:19:18:157
00:20:49.039 : en:(07)00:20:49:039
00:22:11.496 : en:(08)00:22:11:496
00:25:31.530 : en:(09)00:25:31:530
00:28:23.827 : en:(10)00:28:23:827
00:30:28.535 : en:(11)00:30:28:535
00:33:20.999 : en:(12)00:33:20:999
00:37:02.261 : en:(13)00:37:02:261
00:39:50.596 : en:(14)00:39:50:596
00:45:17.381 : en:(15)00:45:17:381
00:48:51.178 : en:(16)00:48:51:178
00:52:43.952 : en:(17)00:52:43:952
00:56:36.101 : en:(18)00:56:36:101
01:00:20.867 : en:(19)01:00:20:867
01:03:36.896 : en:(20)01:03:36:896
01:05:41.687 : en:(21)01:05:41:687
01:10:42.696 : en:(22)01:10:42:696
01:12:33.182 : en:(23)01:12:33:182
01:16:53.817 : en:(24)01:16:53:817
01:19:40.442 : en:(25)01:19:40:442
01:23:02.769 : en:(26)01:23:02:769
01:25:46.808 : en:(27)01:25:46:808
01:29:55.264 : en:(28)01:29:55:264
01:32:48.312 : en:(29)01:32:48:312
01:34:26.243 : en:(30)01:34:26:243
01:36:08.971 : en:(31)01:36:08:971
01:37:40.187 : en:(32)01:37:40:187
01:46:09.071 : en:(33)01:46:09:071

Особенности релиза:

Справа и слева у видеоряда обрезано по 235р, что дает возможность просмотра на полный экран (без черных полос) на телевизорах с соотношением сторон 16:9 без изменения пропорций. На мой взгляд плюсы данных рипов- это более глубокое восприятие 3D-эффектов (конечно там где они есть) К минусам отнесу- вынужденное обрезание кадра по бокам. Так-что господа- выбор за вами! Всем приятного просмотра!
Проверено на встроенном плейере ТВ Samsung-D6500

[Цитировать]



Показать сообщения:    

Текущее время: 06-Дек 13:18

Часовой пояс: UTC + 3


Вы не можете начинать темы
Вы не можете отвечать на сообщения
Вы не можете редактировать свои сообщения
Вы не можете удалять свои сообщения
Вы не можете голосовать в опросах
Вы не можете прикреплять файлы к сообщениям
Вы не можете скачивать файлы

!ВНИМАНИЕ!
Сайт не предоставляет электронные версии произведений, а занимается лишь коллекционированием и каталогизацией ссылок, присылаемых и публикуемых на форуме нашими читателями. Если вы являетесь правообладателем какого-либо представленного материала и не желаете, чтобы ссылка на него находилась в нашем каталоге, свяжитесь с нами, и мы незамедлительно удалим ее. Файлы для обмена на трекере предоставлены пользователями сайта, и администрация не несет ответственности за их содержание. Просьба не заливать файлы, защищенные авторскими правами, а также файлы нелегального содержания!