[ Сегодня идет свободное скачивание без начисления Download ]


Статистика раздачи
Нет
 
   
 
Top  
 
 
-Мизерере / La marque des anges - Miserere (2013) HDRip- Год выпуска: 2013
Производство: Франция, Бельгия, Liaison Films, Pathe, TF1 Films Production
Жанр: Триллер
Перевод: Одноголосый закадровый, любительский
Озвучка / Автор перевода: Andi
Режиссер: Сильвен Уайт
Актеры: Жерар Депардье, Джои Старр, Рюдигер Фоглер, Элена Ногуэрра, Марта Келлер, Тьерри Лермитт, Кевин Меффр, Иван Франек, Жерар Шеллу, Джеймс Жерар
Описание фильма:
В армянском соборе Святого Иоанна Крестителя в Париже убит чилийский беженец Вильгельм Гетц, регент хора мальчиков и органист. Касдан, офицер полиции в отставке и прихожанин собора, немедленно начинает собственное неофициальное расследование. К нему присоединяется Волокин из отдела по защите прав несовершеннолетних. Оказывается, в прошлом исчезло несколько мальчиков из хоров, которыми руководил Гетц. За первым преступлением следуют еще более кровавые убийства. Между полным опасностей расследованием, в которое пускаются герои, и старинным хоралом «Мизерере» существует таинственная связь…
Дата мировой премьеры: 26 июня 2013
Продолжительность: 01:45:50
Качество видео: HDRip
Видеокодек: XviD
Битрейт видео: ~2050 kb/s
Размер кадра: 720x304
Аудио 1: AC3, 256 kb/s (2 ch) Русский перевод одноголосый (любительский)
Аудио 2: AC3, 448 kb/s (6 ch) Французский оригинал

Mediainfo

Общее
Полное имя : E:\Mizareze\Mizareze.2013.HDRip.2100Mb.avi
Формат : AVI
Формат/Информация : Audio Video Interleave
Профиль формата : OpenDML
Размер файла : 2,05 Гбайт
Продолжительность : 1 ч. 45 м.
Общий поток : 2778 Кбит/сек
Программа кодирования : VirtualDubMod 1.5.10.3 | www.virtualdub-fr.org || (build 2550/release)
Библиотека кодирования : VirtualDubMod build 2550/release
Видео
Идентификатор : 0
Формат : MPEG-4 Visual
Профиль формата : Advanced Simple@L5
Параметр BVOP формата : 1
Параметр QPel формата : Нет
Параметр GMC формата : Без точки перехода
Параметр матрицы формата : Выборочная
Идентификатор кодека : XVID
Идентификатор кодека/Подсказка : XviD
Продолжительность : 1 ч. 45 м.
Битрейт : 2056 Кбит/сек
Ширина : 720 пикселей
Высота : 304 пикселя
Соотношение сторон : 2,35:1
Частота кадров : 23,976 кадра/сек
Цветовое пространство : YUV
Субдискретизация насыщенности : 4:2:0
Битовая глубина : 8 бит
Тип развёртки : Прогрессивная
Метод сжатия : С потерями
Бит/(Пиксели*Кадры) : 0.392
Размер потока : 1,52 Гбайт (74%)
Библиотека кодирования : XviD 1.2.1 (UTC 2008-12-04)
Аудио #1
Идентификатор : 1
Формат : AC-3
Формат/Информация : Audio Coding 3
Расширение режима : CM (complete main)
Параметр Endianness формата : Big
Идентификатор кодека : 2000
Продолжительность : 1 ч. 45 м.
Вид битрейта : Постоянный
Битрейт : 256 Кбит/сек
Каналы : 2 канала
Расположение каналов : Front: L R
Частота : 48,0 КГц
Битовая глубина : 16 бит
Метод сжатия : С потерями
Размер потока : 194 Мбайт (9%)
Выравнивание : Разделение по промежуткам
Продолжительность промежутка : 42 мс. (1,00 видеокадр)
Время предзагрузки промежутка : 500 мс.
Аудио #2
Идентификатор : 2
Формат : AC-3
Формат/Информация : Audio Coding 3
Расширение режима : CM (complete main)
Параметр Endianness формата : Big
Идентификатор кодека : 2000
Продолжительность : 1 ч. 45 м.
Вид битрейта : Постоянный
Битрейт : 448 Кбит/сек
Каналы : 6 каналов
Расположение каналов : Front: L C R, Side: L R, LFE
Частота : 48,0 КГц
Битовая глубина : 16 бит
Метод сжатия : С потерями
Размер потока : 339 Мбайт (16%)
Выравнивание : Разделение по промежуткам
Продолжительность промежутка : 42 мс. (1,00 видеокадр)
Время предзагрузки промежутка : 500 мс.
Скриншоты:
[th]http://img.torrentsclub.org/di/XM2I/f1ye.jpg[/th] [th]http://img.torrentsclub.org/di/MP6R/xbzn.jpg[/th] [th]http://img.torrentsclub.org/di/O2II/xv8l.jpg[/th]
Время раздачи: С 07:00 до 23:00

[Цитировать]



Показать сообщения:    

Текущее время: 10-Дек 21:31

Часовой пояс: UTC + 3


Вы не можете начинать темы
Вы не можете отвечать на сообщения
Вы не можете редактировать свои сообщения
Вы не можете удалять свои сообщения
Вы не можете голосовать в опросах
Вы не можете прикреплять файлы к сообщениям
Вы не можете скачивать файлы

!ВНИМАНИЕ!
Сайт не предоставляет электронные версии произведений, а занимается лишь коллекционированием и каталогизацией ссылок, присылаемых и публикуемых на форуме нашими читателями. Если вы являетесь правообладателем какого-либо представленного материала и не желаете, чтобы ссылка на него находилась в нашем каталоге, свяжитесь с нами, и мы незамедлительно удалим ее. Файлы для обмена на трекере предоставлены пользователями сайта, и администрация не несет ответственности за их содержание. Просьба не заливать файлы, защищенные авторскими правами, а также файлы нелегального содержания!