[ Сегодня идет свободное скачивание без начисления Download ]


Статистика раздачи
Нет
 
   
 
Top  
 
 
-Смертельный номер / Death Defying Acts (2007) BDRip [720p] - Год выпуска: 2007
Жанр: [sh]Триллер, Драма, Мелодрама[/sh]
Описание фильма:
1926 год. Эдинбург посещает с гастролями сам Гарри Гудини. Попутно он дает своему помощнику задание отыскать медиума, способного наладить контакт с его умершей матерью, с которой он не успел попращаться. Одним из кандидатов выступает то ли мошенница, то ли профессионалка Мэри, которая завоевывает доверие Гудини и впоследствии его сердце. Но есть подозрение, что у Мэри не самые благие намерения относительно великого мага.
Режиссер: Джиллиан Армстронг
Актеры: МакКэй Кроуфорд, Фрэнки Мартин, Эйлин О'Горман, Сирша Ронан, Крис Уилсон, Гай Пирс, Кэтрин Зета-Джонс, Кэмпбелл Грэм, Тимоти Сполл, Джек Бэйли, Аарон Браун, Майлз Джапп, Джеймс Фидди, Мартин Фишер, Тим Фрост, Сильвия Ломбардо, Клои Мэки, Холли Мэки, Доджер Филлипс, Джон Уомен
Продолжительность: 01:36:23
Качество видео: BDRip 720p
Перевод: Профессиональный (дублированный) + Двухголосый закадровый любительский + English, Оригинал
Язык субтитров: Русские, английские / UTF-8

Дата мировой премьеры: 13 сентября 2007
Дата российской премьеры: 24 апреля 2008
Видеокодек: MPEG-4 AVC/H.264
Битрейт видео: ~6072 kb/s
Размер кадра: 1280x536
Аудио 1: 48 kHz, AC3, 6 ch, 640 kbps | Russian, Профессиональный (дублированный)
Аудио 2: 48 kHz, AC3, 2 ch, 192 kbps | Russian, Двухголосый закадровый любительский
Аудио 3: DTS, 6 ch, 755 kbps | English, Оригинал

Mediainfo

Общее
Уникальный идентификатор : 189021135242538687747818781860633790234 (0x8E34257DA73FD6CE94599C1EE9C8471A)
Полное имя : E:\deart nomer\Death.Defying.Acts.2007.x264.BDRip.720p.mkv
Формат : Matroska
Версия формата : Version 4 / Version 2
Размер файла : 5,16 Гбайт
Продолжительность : 1 ч. 36 м.
Общий поток : 7662 Кбит/сек
Название фильма : Death Defying Acts 2007 - NovaLan
Дата кодирования : UTC 2013-11-29 19:33:50
Программа кодирования : mkvmerge v6.5.0 ('Isn't she lovely') built on Oct 20 2013 12:50:05
Библиотека кодирования : libebml v1.3.0 + libmatroska v1.4.1
Видео
Идентификатор : 1
Формат : AVC
Формат/Информация : Advanced Video Codec
Профиль формата : High@L4.1
Параметр CABAC формата : Да
Параметр ReFrames формата : 8 кадров
Идентификатор кодека : V_MPEG4/ISO/AVC
Продолжительность : 1 ч. 36 м.
Битрейт : 6072 Кбит/сек
Ширина : 1280 пикселей
Высота : 536 пикселей
Соотношение сторон : 2,40:1
Режим частоты кадров : Постоянный
Частота кадров : 24,000 кадра/сек
Цветовое пространство : YUV
Субдискретизация насыщенности : 4:2:0
Битовая глубина : 8 бит
Тип развёртки : Прогрессивная
Бит/(Пиксели*Кадры) : 0.369
Размер потока : 3,99 Гбайт (77%)
Заголовок : Sergei7721
Библиотека кодирования : x264 core 133 r2334 a3ac64b
Настройки программы : cabac=1 / ref=8 / deblock=1:-1:-1 / analyse=0x3:0x113 / me=umh / subme=10 / psy=1 / psy_rd=1.00:0.20 / mixed_ref=1 / me_range=32 / chroma_me=1 / trellis=2 / 8x8dct=1 / cqm=0 / deadzone=21,11 / fast_pskip=0 / chroma_qp_offset=-3 / threads=12 / lookahead_threads=1 / sliced_threads=0 / nr=0 / decimate=0 / interlaced=0 / bluray_compat=0 / constrained_intra=0 / bframes=6 / b_pyramid=2 / b_adapt=2 / b_bias=0 / direct=3 / weightb=1 / open_gop=0 / weightp=2 / keyint=240 / keyint_min=24 / scenecut=40 / intra_refresh=0 / rc_lookahead=40 / rc=2pass / mbtree=0 / bitrate=6072 / ratetol=1.0 / qcomp=0.60 / qpmin=0 / qpmax=69 / qpstep=4 / cplxblur=20.0 / qblur=0.5 / vbv_maxrate=50000 / vbv_bufsize=62500 / nal_hrd=none / ip_ratio=1.40 / pb_ratio=1.30 / aq=1:1.00
Язык : English
Default : Да
Forced : Нет
Аудио #1
Идентификатор : 2
Формат : AC-3
Формат/Информация : Audio Coding 3
Расширение режима : CM (complete main)
Параметр Endianness формата : Big
Идентификатор кодека : A_AC3
Продолжительность : 1 ч. 36 м.
Вид битрейта : Постоянный
Битрейт : 640 Кбит/сек
Каналы : 6 каналов
Расположение каналов : Front: L C R, Side: L R, LFE
Частота : 48,0 КГц
Битовая глубина : 16 бит
Метод сжатия : С потерями
Размер потока : 441 Мбайт (8%)
Язык : Russian
Default : Да
Forced : Нет
Аудио #2
Идентификатор : 3
Формат : AC-3
Формат/Информация : Audio Coding 3
Расширение режима : CM (complete main)
Параметр Endianness формата : Big
Идентификатор кодека : A_AC3
Продолжительность : 1 ч. 36 м.
Вид битрейта : Постоянный
Битрейт : 192 Кбит/сек
Каналы : 2 канала
Расположение каналов : Front: L R
Частота : 48,0 КГц
Битовая глубина : 16 бит
Метод сжатия : С потерями
Размер потока : 132 Мбайт (3%)
Язык : Russian
Default : Нет
Forced : Нет
Аудио #3
Идентификатор : 4
Формат : DTS
Формат/Информация : Digital Theater Systems
Режим : 16
Параметр Endianness формата : Big
Идентификатор кодека : A_DTS
Продолжительность : 1 ч. 36 м.
Вид битрейта : Постоянный
Битрейт : 755 Кбит/сек
Каналы : 6 каналов
Расположение каналов : Front: L C R, Side: L R, LFE
Частота : 48,0 КГц
Битовая глубина : 24 бит
Метод сжатия : С потерями
Размер потока : 520 Мбайт (10%)
Язык : English
Default : Нет
Forced : Нет
Текст #1
Идентификатор : 5
Формат : UTF-8
Идентификатор кодека : S_TEXT/UTF8
Идентификатор кодека/Информация : UTF-8 Plain Text
Язык : Russian
Default : Да
Forced : Нет
Текст #2
Идентификатор : 6
Формат : UTF-8
Идентификатор кодека : S_TEXT/UTF8
Идентификатор кодека/Информация : UTF-8 Plain Text
Язык : English
Default : Нет
Forced : Нет
Меню
00:00:00.000 : en:00:00:00.000
00:04:31.000 : en:00:04:31.000
00:07:44.000 : en:00:07:44.000
00:13:34.000 : en:00:13:34.000
00:20:04.000 : en:00:20:04.000
00:22:54.000 : en:00:22:54.000
00:25:23.000 : en:00:25:23.000
00:27:50.000 : en:00:27:50.000
00:31:11.000 : en:00:31:11.000
00:37:26.000 : en:00:37:26.000
00:45:09.000 : en:00:45:09.000
00:51:45.000 : en:00:51:45.000
00:55:02.000 : en:00:55:02.000
00:59:48.000 : en:00:59:48.000
01:05:01.000 : en:01:05:01.000
01:09:12.000 : en:01:09:12.000
01:15:28.000 : en:01:15:28.000
01:22:42.000 : en:01:22:42.000
01:26:09.000 : en:01:26:09.000
01:30:35.000 : en:01:30:35.000
Скриншоты:
[th]http://img.torrentsclub.org/di/CDVX/fgnx.png[/th] [th]http://img.torrentsclub.org/di/1HO2/gt6r.png[/th] [th]http://img.torrentsclub.org/di/JD8X/z7x1.png[/th]
Время раздачи: С 07:00 до 23:00

[Цитировать]



Показать сообщения:    

Текущее время: 09-Дек 22:23

Часовой пояс: UTC + 3


Вы не можете начинать темы
Вы не можете отвечать на сообщения
Вы не можете редактировать свои сообщения
Вы не можете удалять свои сообщения
Вы не можете голосовать в опросах
Вы не можете прикреплять файлы к сообщениям
Вы не можете скачивать файлы

!ВНИМАНИЕ!
Сайт не предоставляет электронные версии произведений, а занимается лишь коллекционированием и каталогизацией ссылок, присылаемых и публикуемых на форуме нашими читателями. Если вы являетесь правообладателем какого-либо представленного материала и не желаете, чтобы ссылка на него находилась в нашем каталоге, свяжитесь с нами, и мы незамедлительно удалим ее. Файлы для обмена на трекере предоставлены пользователями сайта, и администрация не несет ответственности за их содержание. Просьба не заливать файлы, защищенные авторскими правами, а также файлы нелегального содержания!