[ Сегодня идет свободное скачивание без начисления Download ]


Статистика раздачи
Нет
 
   
 
Top  
 
 
Марафон
Формат: WEB-DLRip, MKV, H.264, AC3
Режиссер: Карен Оганесян
Жанр: комедия
Продолжительность: 01:41:00
Год выпуска: 2013
В ролях: Михаил Пореченков, Екатерина Васильева, Юлия Пересильд, Анатолий Белый, Игорь Савочкин, Ольга Волкова, Сергей Газаров, Анна Михалкова, Мария Аронова, Ирина Пивоварова
Описание: Жизнь Толика не удалась, спортивная карьера не состоялась, жена ушла к другому. Неуспешный, нелюбимый, безнадежный он потерял веру в себя. Все меняет случайная встреча со странной незнакомкой Анной Ильиничной, которая предлагает ему принять участие в необычном марафоне в далекой Америке...

Видео: 1024x576 (16:9), 25,000 fps, MPEG4 AVC High@L4.1 ~2766 kbps, 0.188 bit/pixel
Аудио: 48 kHz, AC3, 6 ch ~ 384 Kbps

MediaInfo

Общее
Уникальный идентификатор : 176123241214956562334892147612194724792 (0x84801A37ECB46B5B89D7F2F153CC5BB
Полное имя : F:\TREKER\TEMP\marafon_[tfile.ru].mkv
Формат : Matroska
Версия формата : Version 2
Размер файла : 2,19 Гбайт
Продолжительность : 1 ч. 41 м.
Общий поток : 3097 Кбит/сек
Название фильма : marafon_[tfile.ru]
Дата кодирования : UTC 2013-12-01 07:27:01
Программа кодирования : mkvmerge v4.0.0 ('The Stars were mine') сборка от Jun 6 2010 16:18:42
Библиотека кодирования : libebml v1.0.0 + libmatroska v1.0.0
Attachment : Yes
Видео
Идентификатор : 1
Формат : AVC
Формат/Информация : Advanced Video Codec
Профиль формата : High@L4.1
Параметр CABAC формата : Да
Параметр ReFrames формата : 6 кадров
Идентификатор кодека : V_MPEG4/ISO/AVC
Продолжительность : 1 ч. 41 м.
Битрейт : 2766 Кбит/сек
Ширина : 1024 пикселя
Высота : 576 пикселей
Соотношение сторон : 16:9
Режим частоты кадров : Постоянный
Частота кадров : 25,000 кадров/сек
Цветовое пространство : YUV
Субдискретизация насыщенности : 4:2:0
Битовая глубина : 8 бит
Тип развёртки : Прогрессивная
Бит/(Пиксели*Кадры) : 0.188
Размер потока : 1,87 Гбайт (86%)
Заголовок : marafon_[tfile.ru]
Библиотека кодирования : x264 core 130 r2273 b3065e6
Настройки программы : cabac=1 / ref=6 / deblock=1:-1:-1 / analyse=0x3:0x111 / me=umh / subme=9 / psy=1 / psy_rd=1.00:0.15 / mixed_ref=1 / me_range=24 / chroma_me=1 / trellis=2 / 8x8dct=1 / cqm=0 / deadzone=21,11 / fast_pskip=0 / chroma_qp_offset=-3 / threads=6 / lookahead_threads=1 / sliced_threads=0 / nr=0 / decimate=1 / interlaced=0 / bluray_compat=0 / constrained_intra=0 / bframes=3 / b_pyramid=2 / b_adapt=2 / b_bias=0 / direct=1 / weightb=1 / open_gop=0 / weightp=2 / keyint=250 / keyint_min=25 / scenecut=40 / intra_refresh=0 / rc_lookahead=50 / rc=abr / mbtree=1 / bitrate=2766 / ratetol=1.0 / qcomp=0.95 / qpmin=0 / qpmax=69 / qpstep=4 / ip_ratio=1.40 / aq=1:1.00
Язык : Russian
Default : Нет
Forced : Нет
Аудио
Идентификатор : 2
Формат : AC-3
Формат/Информация : Audio Coding 3
Расширение режима : CM (complete main)
Параметр Endianness формата : Big
Идентификатор кодека : A_AC3
Продолжительность : 1 ч. 41 м.
Вид битрейта : Постоянный
Битрейт : 384 Кбит/сек
Каналы : 6 каналов
Расположение каналов : Front: L C R, Side: L R, LFE
Частота : 48,0 КГц
Битовая глубина : 16 бит
Метод сжатия : С потерями
Размер потока : 277 Мбайт (12%)
Заголовок : [Оригинал]
Язык : Russian
Default : Нет
Forced : Нет
Меню
00:00:00.000 : en:Глава 1
00:04:49.000 : en:Глава 2
00:13:29.000 : en:Глава 3
00:22:52.000 : en:Глава 4
00:31:23.000 : en:Глава 5
00:41:50.000 : en:Глава 6
00:50:16.000 : en:Глава 7
00:59:32.000 : en:Глава 8
01:09:27.000 : en:Глава 9
01:18:35.000 : en:Глава 10
01:28:58.000 : en:Глава 11
01:37:58.000 : en:Глава 12

[Цитировать]

Топик был перенесен из форума Новинки кинопроката в форум Недооформленные торренты
Henkok

Топик был перенесен из форума Недооформленные торренты в форум Новинки кинопроката
Henkok

Топик был перенесен из форума Новинки кинопроката в форум Комедия
Henkok



Показать сообщения:    

Текущее время: 10-Дек 17:47

Часовой пояс: UTC + 3


Вы не можете начинать темы
Вы не можете отвечать на сообщения
Вы не можете редактировать свои сообщения
Вы не можете удалять свои сообщения
Вы не можете голосовать в опросах
Вы не можете прикреплять файлы к сообщениям
Вы не можете скачивать файлы

!ВНИМАНИЕ!
Сайт не предоставляет электронные версии произведений, а занимается лишь коллекционированием и каталогизацией ссылок, присылаемых и публикуемых на форуме нашими читателями. Если вы являетесь правообладателем какого-либо представленного материала и не желаете, чтобы ссылка на него находилась в нашем каталоге, свяжитесь с нами, и мы незамедлительно удалим ее. Файлы для обмена на трекере предоставлены пользователями сайта, и администрация не несет ответственности за их содержание. Просьба не заливать файлы, защищенные авторскими правами, а также файлы нелегального содержания!