[ Сегодня идет свободное скачивание без начисления Download ]


Статистика раздачи
Нет
 
   
 
Top  
 
 
Балбесы 2D / Olsen Banden pa de bonede gulve- Страна: Дания
Жанр: мультфильм, комедия, криминал
Год выпуска: 2010
Продолжительность: 01:18:11-Перевод: Профессиональный (полное дублирование)
Формат субтитров: srt
Оригинальная аудиодорожка: Датская-Режиссер: Юрген Лердам / Jorgen Lerdam-В ролях: Мартин Бух, Николай Кристенсен, Аннетт Хеик, Альберт С. Ланд и др.-Описание: На сей раз банда Ольсена решает похитить мемориальное перо, которым были написаны лучшие произведения легендарного сказочника Ганса Христиана Андерсена. Но хитроумная операция опять пошла не тем путем! В дело оказались впутаны китайский магнат, датская королева и продажный премьер-министр. Удастся ли Эгону избежать ареста? Или вместо увильнувшей от полиции «крупной рыбы» ему опять придется выступить «козлом отпущения»?..-Тип релиза: BDRip (NiP)
Контейнер: MKV
Видео : H264 / 4300 kbps / 1280х690 / 23,976 fps / High Profile 4.1
Аудио 1: Русский DTS / 5.1 / 1536 kbps / 48 kHz
Аудио 2: Датский DTS / 5.1 / 1536 kbps / 48 kHz
Cубтитры : Русские
Чаптеры: есть-

MediaInfo

Complete name                    : Olsen.Banden.pa.de.bonede.gulve.2010.Blu-ray.720p.DTS.x264-NIP.Rus.Dan.mkv
Format                           : Matroska
File size                        : 4.00 GiB
Duration                         : 1h 18mn
Overall bit rate                 : 7 325 Kbps
Movie name                       : Olsen.Banden.pa.de.bonede.gulve.2010.Blu-ray.720p.DTS.x264-NIP
Encoded date                     : UTC 2011-06-17 12:22:45
Writing application              : mkvmerge v4.8.0 ('I Got The...') сборка от May 24 2011 03:12:58
Writing library                  : libebml v1.2.0 + libmatroska v1.1.0
Cover                            : Yes / Yes / Yes / Yes
Video
ID                               : 1
Format                           : AVC
Format/Info                      : Advanced Video Codec
Format profile                   : [email protected]
Format settings, CABAC           : Yes
Format settings, ReFrames        : 8 frames
Codec ID                         : V_MPEG4/ISO/AVC
Duration                         : 1h 18mn
Bit rate                         : 4 300 Kbps
Width                            : 1 280 pixels
Height                           : 690 pixels
Display aspect ratio             : 1.855
Frame rate                       : 23.976 fps
Color space                      : YUV
Chroma subsampling               : 4:2:0
Bit depth                        : 8 bits
Scan type                        : Progressive
Bits/(Pixel*Frame)               : 0.203
Stream size                      : 2.27 GiB (57%)
Writing library                  : x264 core 115 r1995 c1e60b9
Encoding settings                : cabac=1 / ref=8 / deblock=1:-1:-1 / analyse=0x3:0x113 / me=umh / subme=10 / psy=1 / psy_rd=0.90:0.00 / mixed_ref=1 / me_range=32 / chroma_me=1 / trellis=2 / 8x8dct=1 / cqm=0 / deadzone=21,11 / fast_pskip=0 / chroma_qp_offset=-2 / threads=12 / sliced_threads=0 / nr=0 / decimate=0 / interlaced=0 / bluray_compat=0 / constrained_intra=0 / bframes=10 / b_pyramid=2 / b_adapt=2 / b_bias=0 / direct=3 / weightb=1 / open_gop=0 / weightp=2 / keyint=250 / keyint_min=23 / scenecut=40 / intra_refresh=0 / rc_lookahead=60 / rc=2pass / mbtree=0 / bitrate=4300 / ratetol=1.0 / qcomp=0.60 / qpmin=0 / qpmax=69 / qpstep=4 / cplxblur=20.0 / qblur=0.5 / vbv_maxrate=50000 / vbv_bufsize=62500 / nal_hrd=none / ip_ratio=1.40 / pb_ratio=1.30 / aq=1:0.80
Language                         : Danish
Matrix coefficients              : BT.709-5, BT.1361, IEC 61966-2-4 709, SMPTE RP177
Audio #1
ID                               : 2
Format                           : DTS
Format/Info                      : Digital Theater Systems
Codec ID                         : A_DTS
Duration                         : 1h 18mn
Bit rate mode                    : Constant
Bit rate                         : 1 510 Kbps
Channel(s)                       : 6 channels
Channel positions                : Front: L C R, Side: L R, LFE
Sampling rate                    : 48.0 KHz
Bit depth                        : 24 bits
Compression mode                 : Lossy
Stream size                      : 844 MiB (21%)
Language                         : Russian
Audio #2
ID                               : 3
Format                           : DTS
Format/Info                      : Digital Theater Systems
Codec ID                         : A_DTS
Duration                         : 1h 18mn
Bit rate mode                    : Constant
Bit rate                         : 1 510 Kbps
Channel(s)                       : 6 channels
Channel positions                : Front: L C R, Side: L R, LFE
Sampling rate                    : 48.0 KHz
Bit depth                        : 24 bits
Compression mode                 : Lossy
Stream size                      : 844 MiB (21%)
Language                         : Danish
Text
ID                               : 4
Format                           : UTF-8
Codec ID                         : S_TEXT/UTF8
Codec ID/Info                    : UTF-8 Plain Text
Language                         : Russian
Menu
00:00:00.000                     : en:00:00:00.000
00:07:51.054                     : en:00:07:51.054
00:14:28.993                     : en:00:14:28.993
00:21:33.792                     : en:00:21:33.792
00:29:43.991                     : en:00:29:43.991
00:37:08.393                     : en:00:37:08.393
00:44:17.530                     : en:00:44:17.530
00:50:41.372                     : en:00:50:41.372
00:56:05.112                     : en:00:56:05.112
01:02:19.319                     : en:01:02:19.319
01:07:57.323                     : en:01:07:57.323
01:13:51.636                     : en:01:13:51.636

[Цитировать]



Показать сообщения:    

Текущее время: 05-Дек 15:37

Часовой пояс: UTC + 3


Вы не можете начинать темы
Вы не можете отвечать на сообщения
Вы не можете редактировать свои сообщения
Вы не можете удалять свои сообщения
Вы не можете голосовать в опросах
Вы не можете прикреплять файлы к сообщениям
Вы не можете скачивать файлы

!ВНИМАНИЕ!
Сайт не предоставляет электронные версии произведений, а занимается лишь коллекционированием и каталогизацией ссылок, присылаемых и публикуемых на форуме нашими читателями. Если вы являетесь правообладателем какого-либо представленного материала и не желаете, чтобы ссылка на него находилась в нашем каталоге, свяжитесь с нами, и мы незамедлительно удалим ее. Файлы для обмена на трекере предоставлены пользователями сайта, и администрация не несет ответственности за их содержание. Просьба не заливать файлы, защищенные авторскими правами, а также файлы нелегального содержания!