[ Today is free to download without increasing Download ]

DL-List and Torrent activity
Complete: [ 1 ]
-Интуиция / Serendipity (2001) HDRip- Год выпуска: 2001
Жанр: Мелодрама, Комедия
Описание фильма:
В один суматошный зимний день, посреди нью-йоркской толпы Джонатан встретил Сару. Два незнакомых человека в объятом предновогодней лихорадкой городе обнаруживают, что их неодолимо тянет друг к другу.
И они решают проверить судьбу: он пишет свой телефон на банкноте, она — в книге. Купюру разменивают, а книгу сдают букинисту. Джонатан и Сара уверены, что скоро увидятся вновь. Но коварная судьба распорядилась по-своему.
Режиссер: Питер Челсом
Актеры: Джон Кьюсак, Кейт Бекинсейл, Джереми Пивен, Бриджет Мойнэхэн, Юджин Леви, Лилли Лавинь, Майкл Джуарино мл., Абдул Альшавиш, Стефен Брюс, Дэвид Спэрроу
Продолжительность: 01:30:57
Качество видео: HDRip
Перевод: Дублированный

Видео: 720x400 (1.80:1), 23.976 fps, XviD build 73 ~1860 kbps avg, 0.269 bit/pixel
Аудио: Русский: 48 kHz, AC3 Dolby Digital, 3/2 (L,C,R,l,r) + LFE ch, ~448.00 kbps avg [Профессиональный (полное дублирование)]


Complete name : E:\Torrent\Serendipity.2001.D.HDRip.1400MB.avi
Format : AVI
Format/Info : Audio Video Interleave
File size : 1.47 GiB
Duration : 1h 30mn
Overall bit rate : 2 317 Kbps
Writing application : VirtualDubMod | www.virtualdub-fr.org || (build 2550/release)
Writing library : VirtualDubMod build 2550/release
ID : 0
Format : MPEG-4 Visual
Format profile : Advanced Simple@L5
Format settings, BVOP : 1
Format settings, QPel : No
Format settings, GMC : No warppoints
Format settings, Matrix : Custom
Codec ID : XVID
Codec ID/Hint : XviD
Duration : 1h 30mn
Bit rate : 1 860 Kbps
Width : 720 pixels
Height : 400 pixels
Display aspect ratio : 16:9
Frame rate : 23.976 fps
Color space : YUV
Chroma subsampling : 4:2:0
Bit depth : 8 bits
Scan type : Progressive
Compression mode : Lossy
Bits/(Pixel*Frame) : 0.269
Stream size : 1.18 GiB (80%)
Writing library : XviD 73
ID : 1
Format : AC-3
Format/Info : Audio Coding 3
Mode extension : CM (complete main)
Format settings, Endianness : Big
Codec ID : 2000
Duration : 1h 30mn
Bit rate mode : Constant
Bit rate : 448 Kbps
Channel(s) : 6 channels
Channel positions : Front: L C R, Side: L R, LFE
Sampling rate : 48.0 KHz
Bit depth : 16 bits
Compression mode : Lossy
Stream size : 291 MiB (19%)
Alignment : Split accross interleaves
Interleave, duration : 42 ms (1.00 video frame)
Interleave, preload duration : 500 ms
[th]http://img.torrentsclub.org/di/3YO4/17d369944401.png[/th] [th]http://img.torrentsclub.org/di/3L0G/27e79b4b8d99.png[/th] [th]http://img.torrentsclub.org/di/5M2M/b17f1aa6f526.png[/th]


Display posts:    

Current time is: 27-Oct 17:44

All times are UTC + 3

You cannot post new topics in this forum
You cannot reply to topics in this forum
You cannot edit your posts in this forum
You cannot delete your posts in this forum
You cannot vote in polls in this forum
You cannot attach files in this forum
You cannot download files in this forum

The site does not give electronic versions of products, and is engaged only in a collecting and cataloguing of the references sent and published at a forum by our readers. If you are the legal owner of any submitted material and do not wish that the reference to it was in our catalogue, contact us and we shall immediately remove her. Files for an exchange on tracker are given by users of a site, and the administration does not bear the responsibility for their maintenance. The request to not fill in the files protected by copyrights, and also files of the illegal maintenance!