[ Сегодня идет свободное скачивание без начисления Download ]


Статистика раздачи
Нет
 
   
 
Top  
 
 
-Профессионал / Killer Elite (2011) BDRip- Год выпуска: 2011
Жанр: Боевик, Триллер, Криминал
Описание фильма:
Дэнни Брайс — бывший наемный убийца международного уровня. Но спустя год спокойной жизни он получает сообщение от посредника, из которого узнает, что его бывший напарник взят в заложники арабским шейхом. Теперь Дэнни обязан убить отставных бойцов элитного спецподразделения SAS, чтобы вызволить приятеля из темницы шейха.
Режиссер: Гэри МакКендри
Актеры: Джейсон Стэйтем, Клайв Оуэн, Роберт Де Ниро, Доминик Пёрселл, Аден Янг, Ивонн Страховски, Бен Мендельсон, Адевале Акинойе-Агбаже, Дэвид Уайтели, Мэтью Нэйбл.
Продолжительность: 01:56:42
Качество видео: BDRip
Перевод: Дублированный
Дата мировой премьеры: 10 сентября 2011
Дата российской премьеры: 22 сентября 2011
Дата выхода DVD релиза: 22 декабря 2011
Видеокодек: Xvid
Битрейт видео: ~2216 Kbps
Размер кадра: 720 x 304
Аудиокодек: AC3 5.1
Битрейт аудио: 448 Kbps

MI

General
Complete name : C:\Users\hp\Downloads\Killer_Elite.BDRip.2011.avi
Format : AVI
Format/Info : Audio Video Interleave
Format profile : OpenDML
File size : 2.18 GiB
Duration : 1h 56mn
Overall bit rate : 2 676 Kbps
Movie name : Профессионал / Killer Elite (2011) BDRip
Writing application : VirtualDubMod 1.5.10.2 (build 2540/release)
Video
ID : 0
Format : MPEG-4 Visual
Format profile : Advanced [email protected]
Format settings, BVOP : 2
Format settings, QPel : No
Format settings, GMC : No warppoints
Format settings, Matrix : Custom
Codec ID : XVID
Codec ID/Hint : XviD
Duration : 1h 56mn
Bit rate : 2 216 Kbps
Width : 720 pixels
Height : 304 pixels
Display aspect ratio : 2.35:1
Frame rate : 23.976 fps
Color space : YUV
Chroma subsampling : 4:2:0
Bit depth : 8 bits
Scan type : Progressive
Compression mode : Lossy
Bits/(Pixel*Frame) : 0.422
Stream size : 1.81 GiB (83%)
Writing library : XviD 65
Audio
ID : 1
Format : AC-3
Format/Info : Audio Coding 3
Mode extension : CM (complete main)
Codec ID : 2000
Duration : 1h 56mn
Bit rate mode : Constant
Bit rate : 448 Kbps
Channel(s) : 6 channels
Channel positions : Front: L C R, Side: L R, LFE
Sampling rate : 48.0 KHz
Bit depth : 16 bits
Compression mode : Lossy
Stream size : 374 MiB (17%)
Alignment : Split accross interleaves
Interleave, duration : 42 ms (1.00 video frame)
Interleave, preload duration : 500 ms
Скриншоты
[th]http://img.torrentsclub.org/di/7WJQ/b05144a0f41c.jpg[/th] [th]http://img.torrentsclub.org/di/SZY0/ddbf0333b8db.jpg[/th] [th]http://img.torrentsclub.org/di/UJEM/eb14bb274af7.jpg[/th]
Время раздачи: 24/7 (до первого скачавшего)

[Цитировать]



Показать сообщения:    

Текущее время: 06-Дек 17:05

Часовой пояс: UTC + 3


Вы не можете начинать темы
Вы не можете отвечать на сообщения
Вы не можете редактировать свои сообщения
Вы не можете удалять свои сообщения
Вы не можете голосовать в опросах
Вы не можете прикреплять файлы к сообщениям
Вы не можете скачивать файлы

!ВНИМАНИЕ!
Сайт не предоставляет электронные версии произведений, а занимается лишь коллекционированием и каталогизацией ссылок, присылаемых и публикуемых на форуме нашими читателями. Если вы являетесь правообладателем какого-либо представленного материала и не желаете, чтобы ссылка на него находилась в нашем каталоге, свяжитесь с нами, и мы незамедлительно удалим ее. Файлы для обмена на трекере предоставлены пользователями сайта, и администрация не несет ответственности за их содержание. Просьба не заливать файлы, защищенные авторскими правами, а также файлы нелегального содержания!