[ Сегодня идет свободное скачивание без начисления Download ]


Статистика раздачи
Нет
 
   
 
Top  
 
 
-Девственники, берегитесь! / Love Bite (2012) HDRip- Год выпуска: 2012
Производство: Великобритания
Жанр: Комедия, Ужасы
Перевод: Многоголосый закадровый, профессиональный (лицензия)
Дата мировой премьеры: 9 ноября 2012
Дата российской премьеры: 18 июля 2013, «Top Film Distribution»
Дата выхода DVD релиза: 13 августа 2013, «Lizard Cinema Trade»
Режиссер: Энди де Эммони
Актеры: Эдвард Спелирс, Джессика Зор, Фэй Вэрэйнг, Люк Паскуалино, Тимоти Сполл, Роберт Пью, Робин Мориссей, Элуиз Смит, Пол Бирчард, Кейт Суини
Описание фильма:
Джейми живёт в глухом приморском городке, откуда мечтает выбраться. Однажды на вечеринке появляется американка Джулиана. Она умна и совсем не похожа на местных. Но одновременно с её появлением в городе начинают пропадать подростки. Загадочный мужчина предупреждает Джейми — держись от этой девушки подальше, особенно если ты девственник.
Продолжительность: 01:30:38
Качество видео: HDRip
Видеокодек: Xvid
Битрейт видео: ~1848 kb/s
Размер кадра: 720x304
Аудиокодек: AC3 5.1
Битрейт аудио: 448 kb/s

MediaInfo:

Общее
Полное имя : C:\Торренты\Девственники, берегитесь!.2012.HDRip.avi
Формат : AVI
Формат/Информация : Audio Video Interleave
Размер файла : 1,46 Гбайт
Продолжительность : 1 ч. 30 м.
Общий поток : 2305 Кбит/сек
Программа кодирования : VirtualDubMod 1.5.10.2 (build 2540/release)
Библиотека кодирования : VirtualDubMod build 2540/release
Видео
Идентификатор : 0
Формат : MPEG-4 Visual
Профиль формата : Advanced Simple@L5
Параметр BVOP формата : 2
Параметр QPel формата : Нет
Параметр GMC формата : Без точки перехода
Параметр матрицы формата : Default (MPEG)
Идентификатор кодека : XVID
Идентификатор кодека/Подсказка : XviD
Продолжительность : 1 ч. 30 м.
Битрейт : 1848 Кбит/сек
Ширина : 720 пикселей
Высота : 304 пикселя
Соотношение сторон : 2,35:1
Частота кадров : 24,000 кадра/сек
Цветовое пространство : YUV
Субдискретизация насыщенности : 4:2:0
Битовая глубина : 8 бит
Тип развёртки : Прогрессивная
Метод сжатия : С потерями
Бит/(Пиксели*Кадры) : 0.352
Размер потока : 1,17 Гбайт (80%)
Библиотека кодирования : XviD 1.2.1 (UTC 2008-12-04)
Аудио
Идентификатор : 1
Формат : AC-3
Формат/Информация : Audio Coding 3
Расширение режима : CM (complete main)
Параметр Endianness формата : Big
Идентификатор кодека : 2000
Продолжительность : 1 ч. 30 м.
Вид битрейта : Постоянный
Битрейт : 448 Кбит/сек
Каналы : 6 каналов
Расположение каналов : Front: L C R, Side: L R, LFE
Частота : 48,0 КГц
Битовая глубина : 16 бит
Метод сжатия : С потерями
Размер потока : 290 Мбайт (19%)
Выравнивание : Разделение по промежуткам
Продолжительность промежутка : 42 мс. (1,00 видеокадр)
Время предзагрузки промежутка : 500 мс.
Скриншоты:
[th]http://img.torrentsclub.org/di/A7T3/gGW8RGU.jpg[/th] [th]http://img.torrentsclub.org/di/ZF18/vA8z7gR.jpg[/th] [th]http://img.torrentsclub.org/di/52J9/xB4vBCm.jpg[/th]
Время раздачи: с 10.00 до 22.00

[Цитировать]



Показать сообщения:    

Текущее время: 10-Дек 00:19

Часовой пояс: UTC + 3


Вы не можете начинать темы
Вы не можете отвечать на сообщения
Вы не можете редактировать свои сообщения
Вы не можете удалять свои сообщения
Вы не можете голосовать в опросах
Вы не можете прикреплять файлы к сообщениям
Вы не можете скачивать файлы

!ВНИМАНИЕ!
Сайт не предоставляет электронные версии произведений, а занимается лишь коллекционированием и каталогизацией ссылок, присылаемых и публикуемых на форуме нашими читателями. Если вы являетесь правообладателем какого-либо представленного материала и не желаете, чтобы ссылка на него находилась в нашем каталоге, свяжитесь с нами, и мы незамедлительно удалим ее. Файлы для обмена на трекере предоставлены пользователями сайта, и администрация не несет ответственности за их содержание. Просьба не заливать файлы, защищенные авторскими правами, а также файлы нелегального содержания!