[ Сегодня идет свободное скачивание без начисления Download ]


Статистика раздачи
Нет
 
   
 
Top  
 
 
-Сталинград (2013) BDRip [H.264]- Год выпуска: 2013
Производство: Россия, Арт Пикчерс Студия, Нон-стоп Продакшн, Main Road Post , Illusion Industries грим
Жанр: Военный, Драма, Боевик
Перевод: Не требуется
Субтитры: Отсутствуют
Дата мировой премьеры: 10 октября 2013
Дата российской премьеры: 10 октября 2013, «WDSSPR»
Дата выхода DVD релиза: 4 декабря 2013, «Lizard Cinema Trade»
Режиссер: Фёдор Бондарчук
Продюсер: Александр Роднянский, Дмитрий Рудовский, Сергей Мелькумов
Актеры: Пётр Фёдоров, Томас Кречманн, Мария Смольникова, Яна Студилина, Дмитрий Лысенков, Алексей Барабаш, Андрей Смоляков, Сергей Бондарчук, Олег Волку, Хайнер Лаутербах, Олег Тилькин, Ян Кузьмин, Кирилл Варакса, Полина Райкина, Юрий Уткин, Олег Малышев
Описание фильма:
1942-й год. Сталинград. Советские войска планируют контрнаступление на немецкие части, занявшие правый берег Волги. Наступление сорвано. Лишь разведчикам под командованием капитана Громова удается перебраться на другой берег и закрепиться в одном из домов. Им дан приказ удержать его любой ценой. Кроме нескольких чудом уцелевших советских солдат они находят в доме его последнюю жительницу — 19-летнюю Катю. Приказ отбить дом, захваченный противником, получает немецкий офицер Кан. На фоне одного из самых кровопролитных сражений в истории человечества разворачиваются истории любви и драматического противостояния характеров.

Продолжительность: 02:10:48
Качество видео: BDRip | исх. Сталинград (2013) Blu-ray Disc [3D/2D] 1080p AVC 5.1-BLUEBIRD
Видеокодек: MPEG-4 AVC/H.264
Битрейт видео: 1930 kb/s
Размер кадра: 1024x422, 23.976 fps
Аудиокодек: AC3, 6 ch
Битрейт аудио: 448 kb/s

MI

Общее
Уникальный идентификатор                 : 187267291742083300299463061463718182024 (0x8CE25E5482DB0163BF6BDEA06E643C88)
Полное имя                               : D:\Раздачи\Stalingrad.x264.2013.NNM-CLUB.mkv
Формат                                   : Matroska
Версия формата                           : Version 4 / Version 2
Размер файла                             : 2,17 Гбайт
Продолжительность                        : 2 ч. 10 м.
Общий поток                              : 2379 Кбит/сек
Дата кодирования                         : UTC 2013-12-02 16:40:10
Программа кодирования                    : mkvmerge v6.6.0 ('The Edge Of The In Between') built on Dec  1 2013 17:55:00
Библиотека кодирования                   : libebml v1.3.0 + libmatroska v1.4.1
Видео
Идентификатор                            : 1
Формат                                   : AVC
Формат/Информация                        : Advanced Video Codec
Профиль формата                          : [url=mailto:High@L4.1]High@L4.1[/url]
Параметр CABAC формата                   : Да
Параметр ReFrames формата                : 8 кадров
Идентификатор кодека                     : V_MPEG4/ISO/AVC
Продолжительность                        : 2 ч. 10 м.
Битрейт                                  : 1930 Кбит/сек
Ширина                                   : 1024 пикселя
Высота                                   : 422 пикселя
Соотношение сторон                       : 2,40:1
Режим частоты кадров                     : Постоянный
Частота кадров                           : 23,976 кадра/сек
Цветовое пространство                    : YUV
Субдискретизация насыщенности            : 4:2:0
Битовая глубина                          : 8 бит
Тип развёртки                            : Прогрессивная
Бит/(Пиксели*Кадры)                      : 0.186
Размер потока                            : 1,72 Гбайт (79%)
Библиотека кодирования                   : x264 core 138 r2358 9e941d1
Язык                                     : Russian
Default                                  : Да
Forced                                   : Нет
Аудио
Идентификатор                            : 2
Формат                                   : AC-3
Формат/Информация                        : Audio Coding 3
Расширение режима                        : CM (complete main)
Параметр Endianness формата              : Big
Идентификатор кодека                     : A_AC3
Продолжительность                        : 2 ч. 10 м.
Вид битрейта                             : Постоянный
Битрейт                                  : 448 Кбит/сек
Каналы                                   : 6 каналов
Расположение каналов                     : Front: L C R, Side: L R, LFE
Частота                                  : 48,0 КГц
Битовая глубина                          : 16 бит
Метод сжатия                             : С потерями
Размер потока                            : 419 Мбайт (19%)
Язык                                     : Russian
Default                                  : Да
Forced                                   : Нет
Меню
00:00:00.000                             : :Chapter 01
00:15:37.436                             : :Chapter 02
00:31:59.334                             : :Chapter 03
00:46:05.888                             : :Chapter 04
01:03:22.048                             : :Chapter 05
01:20:44.840                             : :Chapter 06
01:35:53.164                             : :Chapter 07
01:51:11.790                             : :Chapter 08
02:10:48.674                             : :Chapter 09

[Цитировать]

Топик был перенесен из форума Новинки кинопроката в форум Военные (отечественные)
Henkok



Показать сообщения:    

Текущее время: 09-Дек 18:33

Часовой пояс: UTC + 3


Вы не можете начинать темы
Вы не можете отвечать на сообщения
Вы не можете редактировать свои сообщения
Вы не можете удалять свои сообщения
Вы не можете голосовать в опросах
Вы не можете прикреплять файлы к сообщениям
Вы не можете скачивать файлы

!ВНИМАНИЕ!
Сайт не предоставляет электронные версии произведений, а занимается лишь коллекционированием и каталогизацией ссылок, присылаемых и публикуемых на форуме нашими читателями. Если вы являетесь правообладателем какого-либо представленного материала и не желаете, чтобы ссылка на него находилась в нашем каталоге, свяжитесь с нами, и мы незамедлительно удалим ее. Файлы для обмена на трекере предоставлены пользователями сайта, и администрация не несет ответственности за их содержание. Просьба не заливать файлы, защищенные авторскими правами, а также файлы нелегального содержания!