[ Сегодня идет свободное скачивание без начисления Download ]


Статистика раздачи
Нет
 
   
 
Top  
 
 
-Влюбиться до смерти / The Necessary Death of Charlie Countryman (2013) WEB-DLRip [VO]- Год выпуска: 2013
Производство: Румыния, США
Жанр: Боевик, Мелодрама, Комедия
Перевод: Одноголосый закадровый, любительский
Озвучка / Автор перевода: den904
Субтитры: Отсутствуют
Дата мировой премьеры: 21 января 2013
Режиссер: Фредрик Бонд
Продюсер: Альберт Бергер, Крэйг Дж. Флорес, Уильям Хорберг
Актеры: Шайа ЛаБаф, Эван Рэйчел Вуд, Мадс Миккельсен, Тиль Швайгер, Руперт Гринт, Джеймс Бакли, Ион Карамитру, Винсент Д’Онофрио, Мелисса Лео, Джон Хёрт
Описание фильма:
Избитый и израненный Чарли Кантримен подвешен вниз головой в центре Бухареста. Еще секунда — и в его сердце вонзится пуля, и жизнь молодого американского туриста оборвется.
А ведь еще пару недель назад ничто не предвещало такого финала. Работа Чарли была скучной, но безопасной, а в личной жизни его лучшими друзьями были галлюциногенные вещества. И вдруг грянул гром — в наркотическом видении ему явилась покойная мама…
Продолжительность: 01:43:34
Качество видео: WEB-DLRip
Видеокодек: Xvid
Битрейт видео: ~1620 kb/s
Размер кадра: 720x400
Аудиокодек: AC3 5.1
Битрейт аудио: 384 kb/s

MediaInfo

Общее
Полное имя : D:\Фильмы\Vlubitsya.do.smerti.2013.WEB-DLRip.1400MB.avi
Формат : AVI
Формат/Информация : Audio Video Interleave
Размер файла : 1,46 Гбайт
Продолжительность : 1 ч. 43 м.
Общий поток : 2014 Кбит/сек
Программа кодирования : VirtualDubMod 1.5.10.3 | www.virtualdub-fr.org || (build 2550/release)
Библиотека кодирования : VirtualDubMod build 2550/release
Видео
Идентификатор : 0
Формат : MPEG-4 Visual
Профиль формата : Advanced Simple@L5
Параметр BVOP формата : 2
Параметр QPel формата : Нет
Параметр GMC формата : Без точки перехода
Параметр матрицы формата : Выборочная
Идентификатор кодека : XVID
Идентификатор кодека/Подсказка : XviD
Продолжительность : 1 ч. 43 м.
Битрейт : 1620 Кбит/сек
Ширина : 720 пикселей
Высота : 400 пикселей
Соотношение сторон : 16:9
Частота кадров : 23,976 кадра/сек
Цветовое пространство : YUV
Субдискретизация насыщенности : 4:2:0
Битовая глубина : 8 бит
Тип развёртки : Прогрессивная
Метод сжатия : С потерями
Бит/(Пиксели*Кадры) : 0.235
Размер потока : 1,17 Гбайт (80%)
Библиотека кодирования : XviD 1.2.1 (UTC 2008-12-04)
Аудио
Идентификатор : 1
Формат : AC-3
Формат/Информация : Audio Coding 3
Идентификатор кодека : 2000
Продолжительность : 1 ч. 43 м.
Вид битрейта : Постоянный
Битрейт : 384 Кбит/сек
Каналы : 6 каналов
Частота : 48,0 КГц
Метод сжатия : С потерями
Размер потока : 285 Мбайт (19%)
Выравнивание : Разделение по промежуткам
Продолжительность промежутка : 42 мс. (1,00 видеокадр)
Время предзагрузки промежутка : 500 мс.
Скриншоты:
[th]http://img.torrentsclub.org/di/KF37/GpE5Mvr.png[/th] [th]http://img.torrentsclub.org/di/ELIM/MDQXhwq.png[/th] [th]http://img.torrentsclub.org/di/4HEG/O3XU1x4.png[/th]
Время раздачи: 24/7
(до 5 скачавших)

[Цитировать]



Показать сообщения:    

Текущее время: 10-Дек 04:06

Часовой пояс: UTC + 3


Вы не можете начинать темы
Вы не можете отвечать на сообщения
Вы не можете редактировать свои сообщения
Вы не можете удалять свои сообщения
Вы не можете голосовать в опросах
Вы не можете прикреплять файлы к сообщениям
Вы не можете скачивать файлы

!ВНИМАНИЕ!
Сайт не предоставляет электронные версии произведений, а занимается лишь коллекционированием и каталогизацией ссылок, присылаемых и публикуемых на форуме нашими читателями. Если вы являетесь правообладателем какого-либо представленного материала и не желаете, чтобы ссылка на него находилась в нашем каталоге, свяжитесь с нами, и мы незамедлительно удалим ее. Файлы для обмена на трекере предоставлены пользователями сайта, и администрация не несет ответственности за их содержание. Просьба не заливать файлы, защищенные авторскими правами, а также файлы нелегального содержания!