[ Сегодня идет свободное скачивание без начисления Download ]


Статистика раздачи
Нет
 
   
 
Top  
 
 
-Целуй меня, идиот! / Kyss meg for faen i helvete (2013) HDRip- Год выпуска: 2013
Производство: Норвегия
Жанр: [sh]Драма, Мелодрама, Комедия[/sh]
Перевод: Двуголосый закадровый, любительский
Озвучка / Автор перевода: DeadSno & den904
Субтитры: Отсутствуют
Дата мировой премьеры: 9 августа 2013
Режиссер: Стайан Кристиансен
Продюсер: Сигве Эндресен, Ингве Сатер
Актеры: Эйли Харбоэ, Кристоффер Йонер, Эйвинн Ларсен Рунестад, Йоханна Кнудсен Рустад, Рубен Росбак, Тура Квале Хальсейд, Марко Иверсен Каник, Рольф Кристиан Ларсен, Марит Синневе Берг
Описание фильма:
Юная Тале играет в театральной труппе, и скоро на сцене будет ставиться пьеса известного норвежского писателя Юна Фоссе. Кресло режиссера соглашается занять профессиональный актер, увязший в жизненном кризисе. Но соглашается с определенными условиями — он берет на главную мужскую роль местного героя, великого футболиста и идиота. Вскоре подростки понимают, что амбиции режиссера сделают из их жизни ад.
Продолжительность: 01:33:43
Качество видео: HDRip
Видеокодек: Xvid
Битрейт видео: ~1631 Kbit/s
Размер кадра: 720 x 304
Аудиокодек: AC3 5.1
Битрейт аудио: 448 Kbit/s

MediaInfo

Общее
Полное имя : D:\Торренты\Целуй меня, идиот.2013.HDRip.avi
Формат : AVI
Формат/Информация : Audio Video Interleave
Размер файла : 1,37 Гбайт
Продолжительность : 1 ч. 33 м.
Общий поток : 2088 Кбит/сек
Программа кодирования : VirtualDubMod 1.5.10.3 Целуй меня, идиот(build 2550/release)
Библиотека кодирования : VirtualDubMod build 2550/release
Видео
Идентификатор : 0
Формат : MPEG-4 Visual
Профиль формата : Advanced [email protected]
Параметр BVOP формата : 1
Параметр QPel формата : Нет
Параметр GMC формата : Без точки перехода
Параметр матрицы формата : Выборочная
Идентификатор кодека : XVID
Идентификатор кодека/Подсказка : XviD
Продолжительность : 1 ч. 33 м.
Битрейт : 1631 Кбит/сек
Ширина : 720 пикс.
Высота : 304 пикс.
Соотношение сторон : 2,35:1
Частота кадров : 23,976 кадр/сек
Цветовое пространство : YUV
Подвыборка цветности : 4:2:0
Битовая глубина : 8 бит
Тип развёртки : Прогрессивная
Метод сжатия : С потерями
Бит/(Пиксели*Кадры) : 0.311
Размер потока : 1,07 Гбайт (78%)
Библиотека кодирования : XviD 1.2.1 (UTC 2008-12-04)
Аудио
Идентификатор : 1
Формат : AC-3
Формат/Информация : Audio Coding 3
Расширение режима : CM (complete main)
Идентификатор кодека : 2000
Продолжительность : 1 ч. 33 м.
Вид битрейта : Постоянный
Битрейт : 448 Кбит/сек
Каналы : 6 каналов
Расположение каналов : Front: L C R, Side: L R, LFE
Частота : 48,0 КГц
Битовая глубина : 16 бит
Метод сжатия : С потерями
Размер потока : 300 Мбайт (21%)
Выравнивание : Разделение по промежуткам
Продолжительность промежутка : 42 мс. (1,00 видеокадр)
Время предзагрузки промежутка : 500 ms
Скриншоты:
[th]http://img.torrentsclub.org/di/EV8M/04e983bdbdfd8ef...7cb8adc.jpg[/th] [th]http://img.torrentsclub.org/di/5YRD/17f48da786f325a...2af3523.jpg[/th] [th]http://img.torrentsclub.org/di/RXKT/ac2f31b35e22691...1163589.jpg[/th]
Время раздачи: 24/7 по возможности

[Цитировать]



Показать сообщения:    

Текущее время: 04-Дек 17:19

Часовой пояс: UTC + 3


Вы не можете начинать темы
Вы не можете отвечать на сообщения
Вы не можете редактировать свои сообщения
Вы не можете удалять свои сообщения
Вы не можете голосовать в опросах
Вы не можете прикреплять файлы к сообщениям
Вы не можете скачивать файлы

!ВНИМАНИЕ!
Сайт не предоставляет электронные версии произведений, а занимается лишь коллекционированием и каталогизацией ссылок, присылаемых и публикуемых на форуме нашими читателями. Если вы являетесь правообладателем какого-либо представленного материала и не желаете, чтобы ссылка на него находилась в нашем каталоге, свяжитесь с нами, и мы незамедлительно удалим ее. Файлы для обмена на трекере предоставлены пользователями сайта, и администрация не несет ответственности за их содержание. Просьба не заливать файлы, защищенные авторскими правами, а также файлы нелегального содержания!