[ Сегодня идет свободное скачивание без начисления Download ]


Статистика раздачи
Нет
 
   
 
Top  
 
 
-Влюбиться до смерти / The Necessary Death of Charlie Countryman (2013) WEB-DL- Год выпуска: 2013
Производство: Румыния, США
Жанр: [sh]Боевик, Триллер, Драма, Мелодрама, Комедия[/sh]
Перевод: Одноголосый закадровый, любительский
Озвучка / Автор перевода: den904
Субтитры: Вшитые отключаемые
Язык субтитров: Английский
Навигация по главам: Есть (16)
Дата мировой премьеры: 21 января 2013
Режиссер: Фредрик Бонд
Продюсер: Альберт Бергер, Крэйг Дж. Флорес, Уильям Хорберг
Актеры: Шайа ЛаБаф, Эван Рэйчел Вуд, Мадс Миккельсен, Тиль Швайгер, Руперт Гринт, Джеймс Бакли, Ион Карамитру, Винсент Д’Онофрио, Мелисса Лео, Джон Хёрт
Описание фильма:
Избитый и израненный Чарли Кантримен подвешен вниз головой в центре Бухареста. Еще секунда — и в его сердце вонзится пуля, и жизнь молодого американского туриста оборвется.
А ведь еще пару недель назад ничто не предвещало такого финала. Работа Чарли была скучной, но безопасной, а в личной жизни его лучшими друзьями были галлюциногенные вещества. И вдруг грянул гром — в наркотическом видении ему явилась покойная мама…


Продолжительность: 01:43:34
Качество видео: WEB-DL 720p
Видеокодек: MPEG-4 AVC/H.264
Битрейт видео: ~4085 кбит/сек
Размер кадра: 1280x718
Аудио #1: AC3, 48,0 КHz, 5.1 ch, 384 kbps (русский)
Аудио #2: AC3, 48,0 КHz, 5.1 ch, 384 kbps (английский)

Трейлер:

MediaInfo:

General
Unique ID                      : 178525700780266926415125308717865678053 (0x864ECC9EC387BA179B86703A3B80B4E5)
Complete name                  : The.Necessary.Death.Of.Charlie.Countryman.2013.WEB-DL.720p..mkv
Format                         : Matroska
Format version                 : Version 4 / Version 2
File size                      : 3.58 GiB
Duration                       : 1h 43mn
Overall bit rate               : 4 952 Kbps
Encoded date                   : UTC 2013-12-03 15:05:03
Writing application            : mkvmerge v6.1.0 ('Old Devil') built on Mar  4 2013 09:10:42
Writing library                : libebml v1.3.0 + libmatroska v1.4.0
Video
ID                             : 1
Format                         : AVC
Format/Info                    : Advanced Video Codec
Format profile                 : [url=mailto:High@L3.1]High@L3.1[/url]
Format settings, CABAC         : No
Format settings, ReFrames      : 4 frames
Codec ID                       : V_MPEG4/ISO/AVC
Duration                       : 1h 43mn
Bit rate                       : 4 085 Kbps
Width                          : 1 280 pixels
Height                         : 718 pixels
Display aspect ratio           : 16:9
Frame rate mode                : Constant
Frame rate                     : 23.976 fps
Color space                    : YUV
Chroma subsampling             : 4:2:0
Bit depth                      : 8 bits
Scan type                      : Progressive
Bits/(Pixel*Frame)             : 0.185
Stream size                    : 2.96 GiB (83%)
Language                       : English
Default                        : Yes
Forced                         : No
Color primaries                : BT.709
Transfer characteristics       : BT.709
Matrix coefficients            : BT.709
Audio #1
ID                             : 2
Format                         : AC-3
Format/Info                    : Audio Coding 3
Mode extension                 : CM (complete main)
Format settings, Endianness    : Big
Codec ID                       : A_AC3
Duration                       : 1h 43mn
Bit rate mode                  : Constant
Bit rate                       : 384 Kbps
Channel(s)                     : 6 channels
Channel positions              : Front: L C R, Side: L R, LFE
Sampling rate                  : 48.0 KHz
Bit depth                      : 16 bits
Compression mode               : Lossy
Stream size                    : 284 MiB (8%)
Language                       : Russian
Default                        : Yes
Forced                         : No
Audio #2
ID                             : 3
Format                         : AC-3
Format/Info                    : Audio Coding 3
Mode extension                 : CM (complete main)
Format settings, Endianness    : Big
Codec ID                       : A_AC3
Duration                       : 1h 43mn
Bit rate mode                  : Constant
Bit rate                       : 384 Kbps
Channel(s)                     : 6 channels
Channel positions              : Front: L C R, Side: L R, LFE
Sampling rate                  : 48.0 KHz
Bit depth                      : 16 bits
Compression mode               : Lossy
Stream size                    : 284 MiB (8%)
Language                       : English
Default                        : No
Forced                         : No
Text
ID                             : 4
Format                         : UTF-8
Codec ID                       : S_TEXT/UTF8
Codec ID/Info                  : UTF-8 Plain Text
Language                       : English
Default                        : No
Forced                         : No
Menu
00:00:00.000                   : en:1
00:05:52.000                   : en:2
00:10:08.000                   : en:3
00:17:16.000                   : en:4
00:22:42.000                   : en:5
00:29:29.000                   : en:6
00:37:01.000                   : en:7
00:42:56.000                   : en:8
00:51:35.000                   : en:9
00:55:28.000                   : en:10
01:02:17.000                   : en:11
01:09:14.000                   : en:12
01:16:23.000                   : en:13
01:23:03.000                   : en:14
01:28:24.000                   : en:15
01:33:16.000                   : en:16
-Скриншоты:
[th]http://img.torrentsclub.org/di/2FEZ/7da5cc220b65fd0...90404eb.png[/th] [th]http://img.torrentsclub.org/di/OGZI/17d3bd1517bc8bf...07ee81e.png[/th] [th]http://img.torrentsclub.org/di/S7AW/201f7d9ae2decda...db28f56.png[/th]
Время раздачи: 24/7

[Цитировать]



Показать сообщения:    

Текущее время: 10-Дек 06:09

Часовой пояс: UTC + 3


Вы не можете начинать темы
Вы не можете отвечать на сообщения
Вы не можете редактировать свои сообщения
Вы не можете удалять свои сообщения
Вы не можете голосовать в опросах
Вы не можете прикреплять файлы к сообщениям
Вы не можете скачивать файлы

!ВНИМАНИЕ!
Сайт не предоставляет электронные версии произведений, а занимается лишь коллекционированием и каталогизацией ссылок, присылаемых и публикуемых на форуме нашими читателями. Если вы являетесь правообладателем какого-либо представленного материала и не желаете, чтобы ссылка на него находилась в нашем каталоге, свяжитесь с нами, и мы незамедлительно удалим ее. Файлы для обмена на трекере предоставлены пользователями сайта, и администрация не несет ответственности за их содержание. Просьба не заливать файлы, защищенные авторскими правами, а также файлы нелегального содержания!