[ Сегодня идет свободное скачивание без начисления Download ]


Статистика раздачи
Нет
 
   
 
Top  
 
 
-Шерлок Холмс (2013) SATRip (1-16 серия из 16)- Русское название: Шерлок Холмс
Год выпуска: 2013
Производство: Россия, Централ Партнершип
Жанр: Триллер, Детектив, Приключения
Дата российской премьеры: 18 ноября 2013
Режиссер: Андрей Кавун
Актеры: Игорь Петренко, Андрей Панин, Леонид Ярмольник, Михаил Боярский, Лянка Грыу, Ингеборга Дапкунайте, Алексей Горбунов, Александр Голубев, Игорь Скляр, Александр Адабашьян, Ольга Красько, Андрей Мерзликин, Дмитрий Лысенков, Елизавета Боярская, Ольга Волкова, Анатолий Рудаков, Валерий Бояринцев, Дарья Юргенс, Александр Безруков, Владимир Лабецкий, Тимофей Будкевич, Данила Шевченко, Рина Гришина, Артём Кавун, Дмитрий Ермакович, Владимир Марьянов, Геннадий Макоев, Екатерина Крупенина, Михаил Евланов, Андрей Матюков
Описание фильма:
Этот сериал возвращает нас на Бейкер-стрит, 221б, где проживают уже давно знакомые персонажи: гениальный сыщик Шерлок Холмс и его друг и летописец, ветеран афганской войны доктор Джон Ватсон. Только теперь у них новые лица: главные роли исполняют звёзды нового актёрского поколения, Игорь Петренко и Андрей Панин. История, как и прежде, начинается со знакомства: доктор Ватсон, в поисках жилья в Лондоне, снимает квартиру у добропорядочной вдовы, миссис Хадсон, на пару с весьма эксцентричным молодым человеком, чей род занятий он никак не может вычислить. Ватсон приходит к выводу, что его сосед — злоумышленник и преступник, но выясняется, что всё ровно наоборот: Шерлок Холмс — гроза преступного мира, знаменитый частный сыщик, к услугам которого Скотленд-Ярд прибегает, когда чувствует своё бессилие (а происходит это регулярно). Доктор вовлекается в захватывающую жизнь своего нового друга, становится его постоянным напарником в расследованиях — и пишет рассказы об их совместных похождениях.

Продолжительность: 00:41:53 серия
Качество видео: SATRip
Видеокодек: DivX
Битрейт видео: 1500 kbps
Размер кадра: 720x400
Аудиокодек: MP2, 2 ch
Битрейт аудио: 128 kbps

MI

Общее
Полное имя                               : E:\Разное\Sherlock.Holms.2013.SATRip.NNM-CLUB\03.serija.avi
Формат                                   : AVI
Формат/Информация                        : Audio Video Interleave
Размер файла                             : 491 Мбайт
Продолжительность                        : 41 м.
Общий поток                              : 1638 Кбит/сек
Программа кодирования                    : VirtualDubModRus 1.5.10.1 (build 2439/release)
Библиотека кодирования                   : VirtualDubMod build 2439/release
Видео
Идентификатор                            : 0
Формат                                   : MPEG-4 Visual
Параметр BVOP формата                    : 1
Параметр QPel формата                    : Нет
Параметр GMC формата                     : Без точки перехода
Параметр матрицы формата                 : Default (H.263)
Режим смешивания                         : Сжатый битовый поток
Идентификатор кодека                     : DX50
Идентификатор кодека/Подсказка           : DivX 5
Продолжительность                        : 41 м.
Битрейт                                  : 1500 Кбит/сек
Ширина                                   : 720 пикселей
Высота                                   : 400 пикселей
Соотношение сторон                       : 16:9
Частота кадров                           : 25,000 кадров/сек
Цветовое пространство                    : YUV
Субдискретизация насыщенности            : 4:2:0
Битовая глубина                          : 8 бит
Тип развёртки                            : Прогрессивная
Метод сжатия                             : С потерями
Бит/(Пиксели*Кадры)                      : 0.208
Размер потока                            : 449 Мбайт (92%)
Библиотека кодирования                   : DivX 6.8.5 (UTC 2009-08-20)
Аудио
Идентификатор                            : 1
Формат                                   : MPEG Audio
Версия формата                           : Version 1
Профиль формата                          : Layer 2
Идентификатор кодека                     : 50
Продолжительность                        : 41 м.
Вид битрейта                             : Постоянный
Битрейт                                  : 128 Кбит/сек
Каналы                                   : 2 канала
Частота                                  : 48,0 КГц
Метод сжатия                             : С потерями
Размер потока                            : 38,3 Мбайт (8%)
Выравнивание                             : Соединение по промежуткам
Продолжительность промежутка             : 40  мс. (1,00 видеокадр)
Время предзагрузки промежутка            : 504  мс.
Скриншоты:

[Цитировать]



Показать сообщения:    

Текущее время: 09-Дек 12:47

Часовой пояс: UTC + 3


Вы не можете начинать темы
Вы не можете отвечать на сообщения
Вы не можете редактировать свои сообщения
Вы не можете удалять свои сообщения
Вы не можете голосовать в опросах
Вы не можете прикреплять файлы к сообщениям
Вы не можете скачивать файлы

!ВНИМАНИЕ!
Сайт не предоставляет электронные версии произведений, а занимается лишь коллекционированием и каталогизацией ссылок, присылаемых и публикуемых на форуме нашими читателями. Если вы являетесь правообладателем какого-либо представленного материала и не желаете, чтобы ссылка на него находилась в нашем каталоге, свяжитесь с нами, и мы незамедлительно удалим ее. Файлы для обмена на трекере предоставлены пользователями сайта, и администрация не несет ответственности за их содержание. Просьба не заливать файлы, защищенные авторскими правами, а также файлы нелегального содержания!