[ Сегодня идет свободное скачивание без начисления Download ]


Статистика раздачи
Нет
 
   
 
Top  
 
 
-Охотники на демонов / Hellbenders (2012) WEB-DLRip- Год выпуска: 2012
Производство: США
Жанр: [sh]Ужасы, Триллер, Комедия[/sh]
Перевод: Многоголосый закадровый, профессиональный + Оригинал (Английский)
Дата мировой премьеры: 9 сентября 2012
Дата российской премьеры: 31 октября 2013, «Наше Кино»
Дата выхода DVD релиза: 3 декабря 2013, «CD Land»
Режиссер: Дж.Т. Петти
Актеры: Клифтон Коллинз-мл., Клэнси Браун, Андре Ройо, Робин Рикун, Макон Блэр, Стивен Геведон, Ларри Фесенден, Дэн Фоглер, Эдоардо Баллерини, Саманта Бак
Описание фильма:
Эксцентричная комедия о команде распутных экзорцистов, изгоняющих нечистую силу, которая жаждет ввергнуть Землю в хаос. Члены Ордена используют любую возможность согрешить для того, чтобы привлечь внимание демонов. Их план прост и эффективен: они заставляют демона вселиться в одного из них, а потом берут его тепленьким. Но однажды они сталкиваются кое с кем посильнее, чем мелкие бесы. Сам Сатана решает бросить им вызов! Охотникам приходится впасть во все тяжкие и отправить дьявола обратно в Ад!

Продолжительность: 01:23:11
Качество видео: WEB-DLRip
Видеокодек: Xvid
Битрейт видео: ~1959 kb/s
Размер кадра: 720x304
Аудио 1: АС3 2.0, 192 kb/s, Русский
Аудио 2: АС3 2.0, 192 kb/s, Английский

MediaInfo:

Общее
Полное имя : C:Торренты\Охотники на демонов.2012.WEBDLRip.avi
Формат : AVI
Формат/Информация : Audio Video Interleave
Размер файла : 1,37 Гбайт
Продолжительность : 1 ч. 23 м.
Общий поток : 2357 Кбит/сек
Программа кодирования : VirtualDubMod 1.5.10.2 (build 2540/release)
Библиотека кодирования : VirtualDubMod build 2540/release
Видео
Идентификатор : 0
Формат : MPEG-4 Visual
Профиль формата : Advanced [email protected]
Параметр BVOP формата : 2
Параметр QPel формата : Нет
Параметр GMC формата : Без точки перехода
Параметр матрицы формата : Default (MPEG)
Идентификатор кодека : XVID
Идентификатор кодека/Подсказка : XviD
Продолжительность : 1 ч. 23 м.
Битрейт : 1959 Кбит/сек
Ширина : 720 пикселей
Высота : 304 пикселя
Соотношение сторон : 2,35:1
Частота кадров : 25,000 кадров/сек
Цветовое пространство : YUV
Субдискретизация насыщенности : 4:2:0
Битовая глубина : 8 бит
Тип развёртки : Прогрессивная
Метод сжатия : С потерями
Бит/(Пиксели*Кадры) : 0.358
Размер потока : 1,14 Гбайт (83%)
Библиотека кодирования : XviD 1.2.1 (UTC 2008-12-04)
Аудио #1
Идентификатор : 1
Формат : AC-3
Формат/Информация : Audio Coding 3
Расширение режима : CM (complete main)
Параметр Endianness формата : Big
Идентификатор кодека : 2000
Продолжительность : 1 ч. 23 м.
Вид битрейта : Постоянный
Битрейт : 192 Кбит/сек
Каналы : 2 канала
Расположение каналов : Front: L R
Частота : 48,0 КГц
Битовая глубина : 16 бит
Метод сжатия : С потерями
Размер потока : 114 Мбайт (8%)
Выравнивание : Разделение по промежуткам
Продолжительность промежутка : 40 мс. (1,00 видеокадр)
Время предзагрузки промежутка : 500 мс.
Аудио #2
Идентификатор : 2
Формат : AC-3
Формат/Информация : Audio Coding 3
Расширение режима : CM (complete main)
Параметр Endianness формата : Big
Идентификатор кодека : 2000
Продолжительность : 1 ч. 23 м.
Вид битрейта : Постоянный
Битрейт : 192 Кбит/сек
Каналы : 2 канала
Расположение каналов : Front: L R
Частота : 48,0 КГц
Битовая глубина : 16 бит
Метод сжатия : С потерями
Размер потока : 114 Мбайт (8%)
Выравнивание : Разделение по промежуткам
Продолжительность промежутка : 40 мс. (1,00 видеокадр)
Время предзагрузки промежутка : 500 мс.
Скриншоты:
[th]http://img.torrentsclub.org/di/79NV/6KOXXAr.jpg[/th] [th]http://img.torrentsclub.org/di/T8TI/jtKkB39.jpg[/th] [th]http://img.torrentsclub.org/di/5IB3/oPuwrdu.jpg[/th]
Время раздачи: с 10.00 до 22.00

[Цитировать]

Топик был перенесен из форума Новинки кинопроката в форум Ужасы
Henkok



Показать сообщения:    

Текущее время: 05-Дек 13:29

Часовой пояс: UTC + 3


Вы не можете начинать темы
Вы не можете отвечать на сообщения
Вы не можете редактировать свои сообщения
Вы не можете удалять свои сообщения
Вы не можете голосовать в опросах
Вы не можете прикреплять файлы к сообщениям
Вы не можете скачивать файлы

!ВНИМАНИЕ!
Сайт не предоставляет электронные версии произведений, а занимается лишь коллекционированием и каталогизацией ссылок, присылаемых и публикуемых на форуме нашими читателями. Если вы являетесь правообладателем какого-либо представленного материала и не желаете, чтобы ссылка на него находилась в нашем каталоге, свяжитесь с нами, и мы незамедлительно удалим ее. Файлы для обмена на трекере предоставлены пользователями сайта, и администрация не несет ответственности за их содержание. Просьба не заливать файлы, защищенные авторскими правами, а также файлы нелегального содержания!