[ Today is free to download without increasing Download ]

DL-List and Torrent activity
-Смертельное правосудие / Retribution (2012) SATRip- Год выпуска: 2012
Производство: США, Feifer Worldwide
Жанр: [sh]Триллер[/sh]
Перевод: Двуголосый закадровый, профессиональный
Озвучка / Автор перевода: НТВ+
Субтитры: Отсутствуют
Дата мировой премьеры: 10 ноября 2012
Дата российской премьеры: 2 декабря 2013
Режиссер: Майкл Фейфер
Продюсер: Майкл Фейфер, Мэтт Фриман, Ли Росс
Актеры: Синтия Уэтрос, Брайан Краузе, Фрэнсис Фишер, Ким Джексон, Даника Ярош, Николас Гуйлак, Гари Кон, Эндрю Тэчер, Сэм Кайндсет, Джон Колтон
Описание фильма:
Никто и предположить не мог, что маленькая покупка в магазине обернется трагедией – банда совершает налет на магазин и берет в заложники 12-летнюю девочку. Родственница девочки бросается в погоню, и бандиты вышвыривают ребенка на шоссе. У девочки травма головы. Полиция приступает к расследованию.
Продолжительность: 01:24:28
Качество видео: SATRip
Видеокодек: XviD
Битрейт видео: ~2124 кбит/сек
Размер кадра: 720x400
Аудиокодек: 48 kHz, AC3 2.0 ch, ~192 kbps
Битрейт аудио: 192 кбит/сек


Complete name                  : Retribution.2012.SATRip.avi
Format                         : AVI
Format/Info                    : Audio Video Interleave
File size                      : 1.37 GiB
Duration                       : 1h 24mn
Overall bit rate               : 2 326 Kbps
Writing application            : VirtualDubMod | [url=http://www.virtualdub-fr.org]www.virtualdub-fr.org[/url] || (build 2550/release)
Writing library                : VirtualDubMod build 2550/release
ID                             : 0
Format                         : MPEG-4 Visual
Format profile                 : Advanced Simple@L5
Format settings, BVOP          : Yes
Format settings, QPel          : No
Format settings, GMC           : No warppoints
Format settings, Matrix        : Default (MPEG)
Codec ID                       : XVID
Codec ID/Hint                  : XviD
Duration                       : 1h 24mn
Bit rate                       : 2 124 Kbps
Width                          : 720 pixels
Height                         : 400 pixels
Display aspect ratio           : 16:9
Frame rate                     : 25.000 fps
Color space                    : YUV
Chroma subsampling             : 4:2:0
Bit depth                      : 8 bits
Scan type                      : Progressive
Compression mode               : Lossy
Bits/(Pixel*Frame)             : 0.295
Stream size                    : 1.25 GiB (91%)
Writing library                : XviD 1.2.1 (UTC 2008-12-04)
ID                             : 1
Format                         : AC-3
Format/Info                    : Audio Coding 3
Mode extension                 : CM (complete main)
Format settings, Endianness    : Big
Codec ID                       : 2000
Duration                       : 1h 24mn
Bit rate mode                  : Constant
Bit rate                       : 192 Kbps
Channel(s)                     : 2 channels
Channel positions              : Front: L R
Sampling rate                  : 48.0 KHz
Bit depth                      : 16 bits
Compression mode               : Lossy
Stream size                    : 116 MiB (8%)
Alignment                      : Split accross interleaves
Interleave, duration           : 40 ms (1.00 video frame)
Interleave, preload duration   : 500 ms
[th]http://img.torrentsclub.org/di/VGLT/4t5RZid.png[/th] [th]http://img.torrentsclub.org/di/M1N5/DpFNmlR.png[/th] [th]http://img.torrentsclub.org/di/GNNY/sWheGgZ.png[/th]-Время раздачи: 24/7 (круглосуточно)


Display posts:    

Current time is: 22-Oct 11:51

All times are UTC + 3

You cannot post new topics in this forum
You cannot reply to topics in this forum
You cannot edit your posts in this forum
You cannot delete your posts in this forum
You cannot vote in polls in this forum
You cannot attach files in this forum
You cannot download files in this forum

The site does not give electronic versions of products, and is engaged only in a collecting and cataloguing of the references sent and published at a forum by our readers. If you are the legal owner of any submitted material and do not wish that the reference to it was in our catalogue, contact us and we shall immediately remove her. Files for an exchange on tracker are given by users of a site, and the administration does not bear the responsibility for their maintenance. The request to not fill in the files protected by copyrights, and also files of the illegal maintenance!