[ Сегодня идет свободное скачивание без начисления Download ]


Статистика раздачи
Нет
 
   
 
Top  
 
 
-Страсти Дон Жуана / Don Jon (2013) BDRip-- Год выпуска: 2013
Производство: США | HitRecord Films, Ram Bergman Productions, Voltage Pictures
Жанр: [sh]Комедия, Мелодрама[/sh]
Перевод: Дублированный
Дата мировой премьеры: 18 января 2013
Дата российской премьеры: 26 сентября 2013, «Парадиз»
Дата выхода DVD релиза: 26 ноября 2013, «Парадиз / Активижен»
Дата выхода Blu-Ray релиза: 10 декабря 2013, «Парадиз / Активижен»-Режиссер: Джозеф Гордон-Левитт
Продюсер: Рэм Бергман, Николя Картье, Джефф Фрэнкс
Актеры: Джозеф Гордон-Левитт, Скарлетт Йоханссон, Джулианна Мур, Тони Данца, Гленн Хедли, Бри Ларсон, Роб Браун, Джереми Люк, Италиа Риччи, Линдси Броад, Пол Бен-Виктор ...-Описание фильма:

Комичная история современного ловеласа, который из каждого любовного приключения вынужден спасаться бегством. Он еще не знает, что недалек тот час, когда ему все-таки придется остепениться…
-

Продолжительность: 01:26:13
Качество видео: BDRip 720p
Видеокодек: MPEG-4 AVC/H.264
Битрейт видео: ~4700 kbps
Размер кадра: 1280*536
Аудиокодек: DTS 5.1
Битрейт аудио: 1509 kbps, русский

MediaInfo:

General
Unique ID                                : 225746545354796708633447246136440172312 (0xA9D53401E7D695EE85CC68721672AF18)
Complete name                            : :\\StrastiDonJuana(2013).BDRip.720p.mkv
Format                                   : Matroska
Format version                           : Version 4 / Version 2
File size                                : 3.74 GiB
Duration                                 : 1h 26mn
Overall bit rate                         : 6 210 Kbps
Movie name                               : CMEGRoup
Encoded date                             : UTC 2013-12-04 08:11:57
Writing application                      : mkvmerge v6.6.0 ('The Edge Of The In Between') built on Dec  1 2013 17:55:00
Writing library                          : libebml v1.3.0 + libmatroska v1.4.1
Video
ID                                       : 1
Format                                   : AVC
Format/Info                              : Advanced Video Codec
Format profile                           : [url=mailto:[email protected]][email protected][/url]
Format settings, CABAC                   : Yes
Format settings, ReFrames                : 9 frames
Codec ID                                 : V_MPEG4/ISO/AVC
Duration                                 : 1h 26mn
Bit rate                                 : 4 700 Kbps
Width                                    : 1 280 pixels
Height                                   : 536 pixels
Display aspect ratio                     : 2.40:1
Frame rate mode                          : Constant
Frame rate                               : 25.000 fps
Color space                              : YUV
Chroma subsampling                       : 4:2:0
Bit depth                                : 8 bits
Scan type                                : Progressive
Bits/(Pixel*Frame)                       : 0.274
Stream size                              : 2.76 GiB (74%)
Writing library                          : x264 core 138 r2358 9e941d1
Encoding settings                        : cabac=1 / ref=9 / deblock=1:-3:-3 / analyse=0x3:0x113 / me=umh / subme=11 / psy=1 / psy_rd=1.00:0.00 / mixed_ref=1 / me_range=32 / chroma_me=1 / trellis=2 / 8x8dct=1 / cqm=0 / deadzone=21,11 / fast_pskip=1 / chroma_qp_offset=-2 / threads=12 / lookahead_threads=1 / sliced_threads=0 / nr=0 / decimate=1 / interlaced=0 / bluray_compat=0 / constrained_intra=0 / bframes=5 / b_pyramid=2 / b_adapt=1 / b_bias=0 / direct=2 / weightb=1 / open_gop=0 / weightp=2 / keyint=250 / keyint_min=25 / scenecut=40 / intra_refresh=0 / rc_lookahead=40 / rc=2pass / mbtree=1 / bitrate=4700 / ratetol=1.0 / qcomp=0.60 / qpmin=10 / qpmax=51 / qpstep=4 / cplxblur=20.0 / qblur=0.5 / vbv_maxrate=62500 / vbv_bufsize=78125 / nal_hrd=none / ip_ratio=1.40 / aq=1:1.00 / zones=121506,129338,q=40
Language                                 : English
Default                                  : Yes
Forced                                   : No
Audio
ID                                       : 2
Format                                   : DTS
Format/Info                              : Digital Theater Systems
Mode                                     : 16
Format settings, Endianness              : Big
Codec ID                                 : A_DTS
Duration                                 : 1h 26mn
Bit rate mode                            : Constant
Bit rate                                 : 1 509 Kbps
Channel(s)                               : 6 channels
Channel positions                        : Front: L C R, Side: L R, LFE
Sampling rate                            : 48.0 KHz
Bit depth                                : 24 bits
Compression mode                         : Lossy
Stream size                              : 931 MiB (24%)
Language                                 : Russian
Default                                  : Yes
Forced                                   : No
Menu
00:00:00.000                             : en:00:00:00.000
00:07:03.320                             : en:00:07:03.320
00:14:54.640                             : en:00:14:54.640
00:21:06.720                             : en:00:21:06.720
00:28:36.080                             : en:00:28:36.080
00:35:33.080                             : en:00:35:33.080
00:42:06.680                             : en:00:42:06.680
00:51:46.320                             : en:00:51:46.320
00:58:00.480                             : en:00:58:00.480
01:03:02.200                             : en:01:03:02.200
01:11:04.280                             : en:01:11:04.280
01:17:57.760                             : en:01:17:57.760
Скриншоты:
[th]http://img.torrentsclub.org/di/6IXR/16d452c0a62b775...96f3792.png[/th] [th]http://img.torrentsclub.org/di/93UF/42a46c5a4852cda...cf58bb9.png[/th] [th]http://img.torrentsclub.org/di/EEDN/95af9615d67da13...711d086.png[/th]
Время раздачи: 24/7 до 3-х скачавших

[Цитировать]



Показать сообщения:    

Текущее время: 05-Дек 01:27

Часовой пояс: UTC + 3


Вы не можете начинать темы
Вы не можете отвечать на сообщения
Вы не можете редактировать свои сообщения
Вы не можете удалять свои сообщения
Вы не можете голосовать в опросах
Вы не можете прикреплять файлы к сообщениям
Вы не можете скачивать файлы

!ВНИМАНИЕ!
Сайт не предоставляет электронные версии произведений, а занимается лишь коллекционированием и каталогизацией ссылок, присылаемых и публикуемых на форуме нашими читателями. Если вы являетесь правообладателем какого-либо представленного материала и не желаете, чтобы ссылка на него находилась в нашем каталоге, свяжитесь с нами, и мы незамедлительно удалим ее. Файлы для обмена на трекере предоставлены пользователями сайта, и администрация не несет ответственности за их содержание. Просьба не заливать файлы, защищенные авторскими правами, а также файлы нелегального содержания!