[ Сегодня идет свободное скачивание без начисления Download ]


Статистика раздачи
Нет
 
   
 
Top  
 
 
-Парклэнд / Parkland (2013) HDRip«On November 22, 1963, President John F. Kennedy was assassinated. This is the story of what happened next»- Год выпуска: 2013
Производство: США
Жанр: [sh]Триллер, Драма, Детектив[/sh]
Перевод: Одноголосый закадровый, любительский (datynet)
Субтитры: Отсутствуют
Дата мировой премьеры: 1 сентября 2013
Дата российской премьеры: 9 января 2014, «Парадиз»
Дата выхода DVD релиза: 18 февраля 2014, «Парадиз / Активижен»
Режиссер: Питер Ландесман
Продюсер: Гари Гоэцман, Том Хэнкс, Мэтт Джексон
Актеры: Зак Эфрон, Марша Гей Харден, Билли Боб Торнтон, Джеки Уивер, Пол Джаматти, Том Уэллинг, Рон Ливингстон, Джеймс Бэдж Дэйл, Джеки Эрл Хейли, Колин Хэнкс
Описание фильма:
22 ноября 1963 года случилось самое загадочное убийство и траурный день для всего США. Госпиталь Парклэнд стал последним пристанищем Джона Ф. Кеннеди. Что стало поводом к убийству президента? Вопрос, который вот уже полвека держит в напряжении человечество… Последняя версия одного из самых громких и неразгаданных преступлений XX века, убийство Джона Ф. Кеннеди — любимого страной президента, молодого умного политика, гениального любовника, водившего опасные романы — с Мэрлин Монро, и еще сотнями красивейших женщин Америки.

Продолжительность: 01:33:39
Качество видео: HDRip
Видеокодек: Xvid
Битрейт видео: ~1838 Kbit/s
Размер кадра: 720 x 400
Аудиокодек: MP3, 2.0
Битрейт аудио: 192 Kbit/s

MediaInfo

Общее
Полное имя : D:\Торренты\ФИЛЬМЫ торента\Парклэнд.2013.HDRip.avi
Формат : AVI
Формат/Информация : Audio Video Interleave
Размер файла : 1,33 Гбайт
Продолжительность : 1 ч. 33 м.
Общий поток : 2039 Кбит/сек
Программа кодирования : VirtualDubMod 1.5.10.3 (build 2550/release)
Библиотека кодирования : VirtualDub build 34753/release
Видео
Идентификатор : 0
Формат : MPEG-4 Visual
Профиль формата : Advanced Simple@L5
Параметр BVOP формата : 2
Параметр QPel формата : Нет
Параметр GMC формата : Без точки перехода
Параметр матрицы формата : Default (H.263)
Идентификатор кодека : XVID
Идентификатор кодека/Подсказка : XviD
Продолжительность : 1 ч. 33 м.
Битрейт : 1838 Кбит/сек
Ширина : 720 пикс.
Высота : 400 пикс.
Соотношение сторон : 16:9
Частота кадров : 23,976 кадр/сек
Цветовое пространство : YUV
Подвыборка цветности : 4:2:0
Битовая глубина : 8 бит
Тип развёртки : Прогрессивная
Метод сжатия : С потерями
Бит/(Пиксели*Кадры) : 0.266
Размер потока : 1,20 Гбайт (90%)
Библиотека кодирования : XviD 1.2.1 (UTC 2008-12-04)
Аудио
Идентификатор : 1
Формат : MPEG Audio
Версия формата : Version 1
Профиль формата : Layer 3
Идентификатор кодека : 55
Идентификатор кодека/Подсказка : MP3
Продолжительность : 1 ч. 33 м.
Вид битрейта : Постоянный
Битрейт : 192 Кбит/сек
Каналы : 2 канала
Частота : 44,1 КГц
Метод сжатия : С потерями
Размер потока : 129 Мбайт (9%)
Выравнивание : Разделение по промежуткам
Продолжительность промежутка : 42 мс. (1,00 видеокадр)
Время предзагрузки промежутка : 500 ms
Скриншоты:
[th]http://img.torrentsclub.org/di/V278/e6f604624047354...c0bb91a.jpg[/th] [th]http://img.torrentsclub.org/di/RMMH/56dd61d10c97fdc...95f578e.jpg[/th] [th]http://img.torrentsclub.org/di/ER0X/493a7535f14b282...78990a1.jpg[/th]
Время раздачи: 24/7 по возможности

[Цитировать]

Топик был перенесен из форума Новинки кинопроката в форум Триллер
Henkok



Показать сообщения:    

Текущее время: 07-Дек 15:30

Часовой пояс: UTC + 3


Вы не можете начинать темы
Вы не можете отвечать на сообщения
Вы не можете редактировать свои сообщения
Вы не можете удалять свои сообщения
Вы не можете голосовать в опросах
Вы не можете прикреплять файлы к сообщениям
Вы не можете скачивать файлы

!ВНИМАНИЕ!
Сайт не предоставляет электронные версии произведений, а занимается лишь коллекционированием и каталогизацией ссылок, присылаемых и публикуемых на форуме нашими читателями. Если вы являетесь правообладателем какого-либо представленного материала и не желаете, чтобы ссылка на него находилась в нашем каталоге, свяжитесь с нами, и мы незамедлительно удалим ее. Файлы для обмена на трекере предоставлены пользователями сайта, и администрация не несет ответственности за их содержание. Просьба не заливать файлы, защищенные авторскими правами, а также файлы нелегального содержания!