[ Сегодня идет свободное скачивание без начисления Download ]


Статистика раздачи
Нет
 
   
 
Top  
 
 
Грязь / Filth
Перевод: Профессиональный (полное дублирование) лицензия, cубтитры: отсутствуют
Формат: DVDRip-AVC, MKV, H.264, AC3
Страна: Великобритания
Режиссер: Джон С. Бейрд
Жанр: драма, комедия, криминал
Продолжительность: 01:33:35
Год выпуска: 2013
Режиссёр: Джон С. Бейрд
В ролях: Джеймс МакЭвой, Джейми Белл, Эдди Марсан, Джим Бродбент, Имоджен Путс, Шона МакДональд, Ширли Хендерсон, Джон Сессионс, Гари Льюис, Иман Эллиотт
Описание: Главный герой — продажный шотландский полицейский Брюс Робертсон, помешанный на сексе и кокаине. Ему бы надо расследовать убийство, но ему сильно мешают собственные странности, привычка разыгрывать коллег и беготня за девушками. За Робертсоном присматривают его напарник Рэй Леннокс и начальник Боб Тоал.

Видео: 1024x440 (2.35:1), 25 fps, AVC (H.264), High@L4.1 ~2741 kbps, 0.346 bit/pixel
Аудио: 48 kHz, AC3 Dolby Digital, 3/2 (L,C,R,l,r) + LFE ch, ~384 kbps

Отчет MediaInfo

Общее
Уникальный идентификатор : 184902909413553338711800515487724124531 (0x8B1B0147F7B409B284684DE269FAB973)
Полное имя : E:\Gryaz.2013.DVDRip.h264.2.05GB.mkv
Формат : Matroska
Размер файла : 2,04 Гбайт
Продолжительность : 1 ч. 33 м.
Общий поток : 3125 Кбит/сек
Название фильма : Gryaz.2013.D.DVDRip.h264.2.05GB.
Дата кодирования : UTC 2013-12-05 05:01:49
Программа кодирования : mkvmerge v2.9.9 ('Tutu') built on Nov 25 2009 21:13:32
Библиотека кодирования : libebml v0.7.9 + libmatroska v0.8.1
Видео
Идентификатор : 1
Формат : AVC
Формат/Информация : Advanced Video Codec
Профиль формата : High@L4.1
Параметр CABAC формата : Да
Параметр ReFrames формата : 10 кадров
Идентификатор кодека : V_MPEG4/ISO/AVC
Продолжительность : 1 ч. 33 м.
Битрейт : 2741 Кбит/сек
Ширина : 1024 пикс.
Высота : 440 пикс.
Соотношение сторон : 2,35:1
Частота кадров : 25,000 кадр/сек
Цветовое пространство : YUV
Подвыборка цветности : 4:2:0
Битовая глубина : 8 бит
Тип развёртки : Прогрессивная
Бит/(Пиксели*Кадры) : 0.346
Размер потока : 1,75 Гбайт (86%)
Библиотека кодирования : x264 core 119 r2106 07efeb4
Настройки программы : cabac=1 / ref=10 / deblock=1:-3:-3 / analyse=0x3:0x113 / me=umh / subme=10 / psy=1 / psy_rd=1.00:0.00 / mixed_ref=1 / me_range=24 / chroma_me=1 / trellis=2 / 8x8dct=1 / cqm=0 / deadzone=21,11 / fast_pskip=1 / chroma_qp_offset=-2 / threads=12 / sliced_threads=0 / nr=0 / decimate=0 / interlaced=0 / bluray_compat=0 / constrained_intra=0 / bframes=7 / b_pyramid=2 / b_adapt=1 / b_bias=0 / direct=3 / weightb=1 / open_gop=0 / weightp=2 / keyint=250 / keyint_min=25 / scenecut=40 / intra_refresh=0 / rc_lookahead=40 / rc=2pass / mbtree=1 / bitrate=2741 / ratetol=1.0 / qcomp=0.70 / qpmin=0 / qpmax=69 / qpstep=4 / cplxblur=20.0 / qblur=0.5 / ip_ratio=1.40 / aq=1:0.60
Язык : English
Аудио
Идентификатор : 2
Формат : AC-3
Формат/Информация : Audio Coding 3
Расширение режима : CM (complete main)
Идентификатор кодека : A_AC3
Продолжительность : 1 ч. 33 м.
Вид битрейта : Постоянный
Битрейт : 384 Кбит/сек
Каналы : 6 каналов
Расположение каналов : Front: L C R, Side: L R, LFE
Частота : 48,0 КГц
Битовая глубина : 16 бит
Метод сжатия : С потерями
Размер потока : 257 Мбайт (12%)
Заголовок : AC3.384Kbps (6ch) Russian (Дубляж)
Язык : Russian
Меню
00:00:00.000 : :Chapter 01
00:08:07.090 : :Chapter 02
00:16:12.220 : :Chapter 03
00:25:20.270 : :Chapter 04
00:34:05.340 : :Chapter 05
00:42:03.370 : :Chapter 06
00:49:14.410 : :Chapter 07
00:54:01.440 : :Chapter 08
01:04:09.520 : :Chapter 09
01:13:29.640 : :Chapter 10
01:22:14.670 : :Chapter 11
01:30:06.770 : :Chapter 12

[Цитировать]

Топик был перенесен из форума Новинки кинопроката в форум Драма
Henkok



Показать сообщения:    

Текущее время: 07-Дек 17:30

Часовой пояс: UTC + 3


Вы не можете начинать темы
Вы не можете отвечать на сообщения
Вы не можете редактировать свои сообщения
Вы не можете удалять свои сообщения
Вы не можете голосовать в опросах
Вы не можете прикреплять файлы к сообщениям
Вы не можете скачивать файлы

!ВНИМАНИЕ!
Сайт не предоставляет электронные версии произведений, а занимается лишь коллекционированием и каталогизацией ссылок, присылаемых и публикуемых на форуме нашими читателями. Если вы являетесь правообладателем какого-либо представленного материала и не желаете, чтобы ссылка на него находилась в нашем каталоге, свяжитесь с нами, и мы незамедлительно удалим ее. Файлы для обмена на трекере предоставлены пользователями сайта, и администрация не несет ответственности за их содержание. Просьба не заливать файлы, защищенные авторскими правами, а также файлы нелегального содержания!