[ Сегодня идет свободное скачивание без начисления Download ]


Статистика раздачи
Нет
 
   
 
Top  
 
 
-Мужчины на грани / Una pistola en cada mano (2012) HDRip- Год выпуска: 2012
Производство: Испания | Audiovisual Aval SGR, Canal+ Espana, Catalan Film and Television
Жанр: [sh]Драма, Комедия[/sh]
Перевод: Многоголосый закадровый, профессиональный (Лицензия)
Субтитры: Отсутствуют-Дата мировой премьеры: 17 ноября 2012 (Италия)
Дата российской премьеры: 18 июля 2013, «Cinema Prestige»
Дата выхода DVD релиза: 10 октября 2013, «Cinema Prestige»-Режиссер: Сеск Гай-Продюсер: Марта Эстебан-Актеры: Хавьер Камара, Рикардо Дарин, Эдуард Фернандес, Хорди Молья, Эдуардо Норьега, Альберто Сан Хуан, Леонардо Сбаралья, Луис Тосар, Каетана Гильен Куэрво, Кандела Пенья-Описание фильма:
Героями картины являются восемь мужчин, каждый из которых пытается по-своему решить свалившуюся на него жизненную дилемму. Один борется с кризисом среднего возраста. Другой обанкротился и вынужден жить вместе с мамой и ее кошкой. Третий спустя два года после развода с женой все еще пытается вернуть ее. Четвертый не может понять, почему жена ему изменяет, а сам при этом употребляет наркотики. У остальных схожие проблемы, но реакция на них — разная.-
Продолжительность: 01:30:53
Качество видео: HDRip
Видеокодек: Xvid
Битрейт видео: ~1669 Кбит/сек
Размер кадра: 720 x 384 (1.875) at 23.976 fps, 48,0 КГц
Аудиокодек: AC3 5.1
Битрейт аудио: 384 Кбит/сек

Знаете ли вы, что...

• Леонардо Сбаралья получил роль, которая могла достаться Хавьеру Бардему.
• Сеск Гай написал роль специально для Канделы Пеньи. Все сцены с её участием были отсняты за 4 дня.

MediaInfo:

Полное имя                               : G:\Мужчины на грани  Una pistola en cada mano (2012) DVDRip  Лицензия\Muzhchiny.na.grani.2012.P.HDRip.1400Mb.avi
Формат                                   : AVI
Формат/Информация                        : Audio Video Interleave
Размер файла                             : 1,37 Гбайт
Продолжительность                        : 1 ч. 34 м.
Общий поток                              : 2062 Кбит/сек
Программа кодирования                    : VirtualDubMod 1.5.10.3 | [url=http://www.virtualdub-fr.org]www.virtualdub-fr.org[/url] || (build 2550/release)
Библиотека кодирования                   : VirtualDubMod build 2550/release
Видео
Идентификатор                            : 0
Формат                                   : MPEG-4 Visual
Профиль формата                          : Advanced Simple@L5
Параметр BVOP формата                    : 1
Параметр QPel формата                    : Нет
Параметр GMC формата                     : Без точки перехода
Параметр матрицы формата                 : Выборочная
Идентификатор кодека                     : XVID
Идентификатор кодека/Подсказка           : XviD
Продолжительность                        : 1 ч. 34 м.
Битрейт                                  : 1669 Кбит/сек
Ширина                                   : 720 пикселей
Высота                                   : 384 пикселя
Соотношение сторон                       : 1,85:1
Частота кадров                           : 23,976 кадра/сек
Цветовое пространство                    : YUV
Субдискретизация насыщенности            : 4:2:0
Битовая глубина                          : 8 бит
Тип развёртки                            : Прогрессивная
Метод сжатия                             : С потерями
Бит/(Пиксели*Кадры)                      : 0.252
Размер потока                            : 1,11 Гбайт (81%)
Библиотека кодирования                   : XviD 1.2.1 (UTC 2008-12-04)
Аудио
Идентификатор                            : 1
Формат                                   : AC-3
Формат/Информация                        : Audio Coding 3
Расширение режима                        : CM (complete main)
Параметр Endianness формата              : Big
Идентификатор кодека                     : 2000
Продолжительность                        : 1 ч. 34 м.
Вид битрейта                             : Постоянный
Битрейт                                  : 384 Кбит/сек
Каналы                                   : 6 каналов
Расположение каналов                     : Front: L C R, Side: L R, LFE
Частота                                  : 48,0 КГц
Битовая глубина                          : 16 бит
Метод сжатия                             : С потерями
Размер потока                            : 261 Мбайт (19%)
Выравнивание                             : Разделение по промежуткам
Продолжительность промежутка             : 42  мс. (1,00 видеокадр)
Время предзагрузки промежутка            : 500  мс.
Скриншоты:

[th]http://img.torrentsclub.org/di/U9RN/9dd28d0a5e2e.png[/th] [th]http://img.torrentsclub.org/di/TXKL/128fc0362173.png[/th] [th]http://img.torrentsclub.org/di/ZL6I/cf1a11d39594.png[/th]

Время раздачи: 24/7 (до 10 скачавших)

[Цитировать]



Показать сообщения:    

Текущее время: 03-Дек 01:12

Часовой пояс: UTC + 3


Вы не можете начинать темы
Вы не можете отвечать на сообщения
Вы не можете редактировать свои сообщения
Вы не можете удалять свои сообщения
Вы не можете голосовать в опросах
Вы не можете прикреплять файлы к сообщениям
Вы не можете скачивать файлы

!ВНИМАНИЕ!
Сайт не предоставляет электронные версии произведений, а занимается лишь коллекционированием и каталогизацией ссылок, присылаемых и публикуемых на форуме нашими читателями. Если вы являетесь правообладателем какого-либо представленного материала и не желаете, чтобы ссылка на него находилась в нашем каталоге, свяжитесь с нами, и мы незамедлительно удалим ее. Файлы для обмена на трекере предоставлены пользователями сайта, и администрация не несет ответственности за их содержание. Просьба не заливать файлы, защищенные авторскими правами, а также файлы нелегального содержания!