[ Сегодня идет свободное скачивание без начисления Download ]


Статистика раздачи
Нет
 
   
 
Top  
 
 
-Близкие враги / Enemies Closer (2013) DVDRip- Год выпуска: 2013
Производство: Канада, США
Жанр: [sh]Триллер[/sh]
Перевод: Одноголосый закадровый, любительский
Озвучка / Автор перевода: Хихикающий доктор
Субтитры: Отсутствуют
Дата мировой премьеры: 4 декабря 2013
Режиссер: Питер Хайамс
Продюсер: Моше Дайамант, Бобби Рангелов, Кортни Соломон
Актеры: Жан-Клод Ван Дамм, Орландо Джонс, Том Эверетт Скотт, Линзи Коккер, Кристофер Ван Варенберг, Захари Бахаров, Атанас Сребрев, Мэтт Медрано, Йонас Токингтон, Христо Митцков
Описание фильма:
Двум заклятым врагам, столкнувшимся в лесу на американо-канадской границе, приходится объединиться в борьбе против наркокурьеров, желающих любой ценой вернуть свой потерянный груз.

Продолжительность: 01:24:50
Качество видео: DVDRip
Видеокодек: Xvid
Битрейт видео: ~1014 Kbit/s
Размер кадра: 640 x 352
Аудиокодек: MP3, 2.0
Битрейт аудио: 192 Kbit/s

MediaInfo

Общее
Полное имя : D:\Торренты\Близкие враги.2013.DVDRip.avi
Формат : AVI
Формат/Информация : Audio Video Interleave
Размер файла : 738 Мбайт
Продолжительность : 1 ч. 24 м.
Общий поток : 1216 Кбит/сек
Программа кодирования : VirtualDubMod 1.5.10.3 (build 2550/release)
Библиотека кодирования : VirtualDubMod build 2550/release
Видео
Идентификатор : 0
Формат : MPEG-4 Visual
Профиль формата : Advanced Simple@L5
Параметр BVOP формата : 2
Параметр QPel формата : Нет
Параметр GMC формата : Без точки перехода
Параметр матрицы формата : Default (H.263)
Режим смешивания : Сжатый битовый поток
Идентификатор кодека : XVID
Идентификатор кодека/Подсказка : XviD
Продолжительность : 1 ч. 24 м.
Битрейт : 1014 Кбит/сек
Ширина : 640 пикс.
Высота : 352 пикс.
Соотношение сторон : 16:9
Частота кадров : 23,976 кадр/сек
Цветовое пространство : YUV
Подвыборка цветности : 4:2:0
Битовая глубина : 8 бит
Тип развёртки : Прогрессивная
Метод сжатия : С потерями
Бит/(Пиксели*Кадры) : 0.188
Размер потока : 615 Мбайт (83%)
Библиотека кодирования : XviD 64
Аудио
Идентификатор : 1
Формат : MPEG Audio
Версия формата : Version 1
Профиль формата : Layer 3
Идентификатор кодека : 55
Идентификатор кодека/Подсказка : MP3
Продолжительность : 1 ч. 24 м.
Вид битрейта : Постоянный
Битрейт : 192 Кбит/сек
Каналы : 2 канала
Частота : 44,1 КГц
Метод сжатия : С потерями
Размер потока : 117 Мбайт (16%)
Выравнивание : Разделение по промежуткам
Продолжительность промежутка : 42 мс. (1,00 видеокадр)
Время предзагрузки промежутка : 500 ms
Скриншоты:
[th]http://img.torrentsclub.org/di/QCNH/2c3ee3df3e5e3c8...d651659.jpg[/th] [th]http://img.torrentsclub.org/di/S94W/417f4bec445007f...9de4685.jpg[/th] [th]http://img.torrentsclub.org/di/OPFN/bdde47a2598e881...dcd2ac0.jpg[/th]
Время раздачи: 24/7 по возможности

[Цитировать]

Топик был перенесен из форума Новинки кинопроката в форум Триллер
Henkok



Показать сообщения:    

Текущее время: 08-Дек 17:15

Часовой пояс: UTC + 3


Вы не можете начинать темы
Вы не можете отвечать на сообщения
Вы не можете редактировать свои сообщения
Вы не можете удалять свои сообщения
Вы не можете голосовать в опросах
Вы не можете прикреплять файлы к сообщениям
Вы не можете скачивать файлы

!ВНИМАНИЕ!
Сайт не предоставляет электронные версии произведений, а занимается лишь коллекционированием и каталогизацией ссылок, присылаемых и публикуемых на форуме нашими читателями. Если вы являетесь правообладателем какого-либо представленного материала и не желаете, чтобы ссылка на него находилась в нашем каталоге, свяжитесь с нами, и мы незамедлительно удалим ее. Файлы для обмена на трекере предоставлены пользователями сайта, и администрация не несет ответственности за их содержание. Просьба не заливать файлы, защищенные авторскими правами, а также файлы нелегального содержания!