[ Сегодня идет свободное скачивание без начисления Download ]


Статистика раздачи
Нет
 
   
 
Top  
 
 
-Всё включено 2 - Год выпуска: 2013
Страна: Россия
Производство: «Россия 2»
Жанр: Комедия
Режиссёр: Эдуард Радзюкевич
В ролях: Михаил Беспалов, Федор Добронравов, Роман Мадянов, Сергей Бурунов, Эдуард Радзюкевич, Андрей Кайков, Григорий Сиятвинда, Карэн Бадалов, Илья Уткин, Михаил Семин
Перевод: Не требуется
Субтитры: Нет
Описание: Когда приятель похож на тебя как две капли воды, тут уж грех не поучаствовать в конкурсе двойников и не срубить легкие деньги в доллар-эквиваленте. И разве может помешать то, что ради этого надо лететь в Стамбул накануне собственной свадьбы?! Чтобы доказать будущему тестю-олигарху, что он способен позаботиться о его дочери, Андрей скрывает от невесты истинную цель своего путешествия и улетает в Турцию. Только планам парня не суждено сбыться, когда он встречает в Стамбуле старинных врагов и безумных друзей. И те, и другие превратят турецкий вояж Андрея в сумасшедший калейдоскоп приключений с риском для жизни. Качество: DVDRip | исх. Всё включено 2 2013 DVD9
Продолжительность: 01:35:10.560 (142764 frames)
Формат: AVC
Видео кодек: H.264
Аудио кодек: AС3
Видео: 1024x448 (2,25:1), 25,000 fps, H.264 ~1741 kbps avg, 0.152 bit/pixel
Аудио: 48 kHz, AC3 Dolby Digital, 6 ch, ~448 kbps
Дата премьеры (мир): 4 октября 2013
Дата премьеры (РФ): 3 октября 2013, «Парадиз»

MediaInfo

бщее
Полное имя : D:\Раздачи\Vsjo.vkljucheno.2.2013.x264.DVDRip.NNM-CLUB.mkv
Формат : Matroska
Версия формата : Version 2
Размер файла : 1,46 Гбайт
Продолжительность : 1 ч. 35 м.
Общий поток : 2191 Кбит/сек
Дата кодирования : UTC 2013-12-06 02:58:37
Программа кодирования : mkvmerge v6.1.0 ('Old Devil') built on Mar 4 2013 09:10:42
Библиотека кодирования : libebml v1.3.0 + libmatroska v1.4.0
Видео
Идентификатор : 1
Формат : AVC
Формат/Информация : Advanced Video Codec
Профиль формата : [email protected]
Параметр CABAC формата : Да
Параметр ReFrames формата : 10 кадров
Идентификатор кодека : V_MPEG4/ISO/AVC
Продолжительность : 1 ч. 35 м.
Битрейт : 1741 Кбит/сек
Ширина : 1024 пикселя
Высота : 448 пикселей
Соотношение сторон : 2,25:1
Режим частоты кадров : Постоянный
Частота кадров : 25,000 кадров/сек
Цветовое пространство : YUV
Субдискретизация насыщенности : 4:2:0
Битовая глубина : 8 бит
Тип развёртки : Прогрессивная
Бит/(Пиксели*Кадры) : 0.152
Размер потока : 1,13 Гбайт (78%)
Библиотека кодирования : x264 core 130 r2273 b3065e6
Default : Да
Forced : Нет
Аудио
Идентификатор : 2
Формат : AC-3
Формат/Информация : Audio Coding 3
Расширение режима : CM (complete main)
Параметр Endianness формата : Big
Идентификатор кодека : A_AC3
Продолжительность : 1 ч. 35 м.
Вид битрейта : Постоянный
Битрейт : 448 Кбит/сек
Каналы : 6 каналов
Расположение каналов : Front: L C R, Side: L R, LFE
Частота : 48,0 КГц
Битовая глубина : 16 бит
Метод сжатия : С потерями
Размер потока : 305 Мбайт (20%)
Default : Да
Forced : Нет

[Цитировать]

Топик был перенесен из форума Новинки кинопроката в форум Комедия
Henkok



Показать сообщения:    

Текущее время: 06-Дек 21:03

Часовой пояс: UTC + 3


Вы не можете начинать темы
Вы не можете отвечать на сообщения
Вы не можете редактировать свои сообщения
Вы не можете удалять свои сообщения
Вы не можете голосовать в опросах
Вы не можете прикреплять файлы к сообщениям
Вы не можете скачивать файлы

!ВНИМАНИЕ!
Сайт не предоставляет электронные версии произведений, а занимается лишь коллекционированием и каталогизацией ссылок, присылаемых и публикуемых на форуме нашими читателями. Если вы являетесь правообладателем какого-либо представленного материала и не желаете, чтобы ссылка на него находилась в нашем каталоге, свяжитесь с нами, и мы незамедлительно удалим ее. Файлы для обмена на трекере предоставлены пользователями сайта, и администрация не несет ответственности за их содержание. Просьба не заливать файлы, защищенные авторскими правами, а также файлы нелегального содержания!