[ Сегодня идет свободное скачивание без начисления Download ]


Статистика раздачи
Нет
 
   
 
Top  
 
 
-Голыми, как пришли / Naked As We Came (2013) DVDRip«It's never too late»- Год выпуска: 2013
Производство: США, Garden House Entertainment, Soap Productions
Жанр: [sh]Драма, Семейный[/sh]
Перевод: Одноголосый закадровый, любительский (datynet)
Субтитры: Отсутствуют
Дата мировой премьеры: 4 июля 2013
Режиссер: Ричард Лемэй
Продюсер: Ким Джексон, Ричард Лемэй
Актеры: Бенджамин Вивер, Райан Виджилант, Кармин Алерс, Лу Мак-Уильямс
Описание фильма:
После тревожного телефонного звонка Лора и её брат Эллиот отправляются в семейный загородный дом к своей матери, Лилли. Она смертельно больна и живёт с красивым незнакомцем по имени Тед. Видя мать в таком состоянии, Лора и Эллиот начинают понимать, что их собственные жизненные пути зашли в тупик. Лилли пытается убедить детей, что глупо и бессмысленно ради материальных благ отказываться от своей мечты. Ведь как сказал один мудрец, нагими мы пришли в этот мир, нагими и уйдём…
Продолжительность: 01:22:27
Качество видео: DVDRip
Видеокодек: Xvid
Битрейт видео: ~1057 Kbit/s
Размер кадра: 720 x 304
Аудиокодек: MP3, 2.0
Битрейт аудио: 192 Kbit/s

MediaInfo

Общее
Полное имя : D:\Торренты\Голыми, как пришли.2013.DVDRip.avi
Формат : AVI
Формат/Информация : Audio Video Interleave
Размер файла : 742 Мбайт
Продолжительность : 1 ч. 22 м.
Общий поток : 1258 Кбит/сек
Библиотека кодирования : VirtualDub build 34753/release
Видео
Идентификатор : 0
Формат : MPEG-4 Visual
Профиль формата : Advanced [email protected]
Параметр BVOP формата : 2
Параметр QPel формата : Нет
Параметр GMC формата : Без точки перехода
Параметр матрицы формата : Default (H.263)
Идентификатор кодека : XVID
Идентификатор кодека/Подсказка : XviD
Продолжительность : 1 ч. 22 м.
Битрейт : 1057 Кбит/сек
Ширина : 720 пикс.
Высота : 304 пикс.
Соотношение сторон : 2,35:1
Частота кадров : 25,000 кадр/сек
Цветовое пространство : YUV
Подвыборка цветности : 4:2:0
Битовая глубина : 8 бит
Тип развёртки : Прогрессивная
Метод сжатия : С потерями
Бит/(Пиксели*Кадры) : 0.193
Размер потока : 623 Мбайт (84%)
Библиотека кодирования : XviD 1.2.1 (UTC 2008-12-04)
Аудио
Идентификатор : 1
Формат : MPEG Audio
Версия формата : Version 1
Профиль формата : Layer 3
Идентификатор кодека : 55
Идентификатор кодека/Подсказка : MP3
Продолжительность : 1 ч. 22 м.
Вид битрейта : Постоянный
Битрейт : 192 Кбит/сек
Каналы : 2 канала
Частота : 44,1 КГц
Метод сжатия : С потерями
Размер потока : 113 Мбайт (15%)
Выравнивание : Разделение по промежуткам
Продолжительность промежутка : 40 мс. (1,00 видеокадр)
Время предзагрузки промежутка : 500 ms
Скриншоты:
[th]http://img.torrentsclub.org/di/QBGJ/db8e8238ce7eff5...0355b8d.jpg[/th] [th]http://img.torrentsclub.org/di/FQ9B/618811b2495a47b...77e4595.jpg[/th] [th]http://img.torrentsclub.org/di/1XCU/6be73ff83892f28...726a3d0.jpg[/th]
Время раздачи: 24/7 по возможности

[Цитировать]



Показать сообщения:    

Текущее время: 06-Дек 22:58

Часовой пояс: UTC + 3


Вы не можете начинать темы
Вы не можете отвечать на сообщения
Вы не можете редактировать свои сообщения
Вы не можете удалять свои сообщения
Вы не можете голосовать в опросах
Вы не можете прикреплять файлы к сообщениям
Вы не можете скачивать файлы

!ВНИМАНИЕ!
Сайт не предоставляет электронные версии произведений, а занимается лишь коллекционированием и каталогизацией ссылок, присылаемых и публикуемых на форуме нашими читателями. Если вы являетесь правообладателем какого-либо представленного материала и не желаете, чтобы ссылка на него находилась в нашем каталоге, свяжитесь с нами, и мы незамедлительно удалим ее. Файлы для обмена на трекере предоставлены пользователями сайта, и администрация не несет ответственности за их содержание. Просьба не заливать файлы, защищенные авторскими правами, а также файлы нелегального содержания!