[ Сегодня идет свободное скачивание без начисления Download ]


Статистика раздачи
Нет
 
   
 
Top  
 
 
-Эпидемия / Los ultimos dias (2013) HDRip- Год выпуска: 2013
Производство: Испания, Франция
Жанр: [sh]Фантастика, Триллер, Приключения[/sh]
Перевод: Многоголосый закадровый, профессиональный
Дата мировой премьеры: 20 марта 2013
Дата российской премьеры: 31 октября 2013, «Ракета Релизинг»
Дата выхода DVD релиза: 3 декабря 2013, «CD Land»
Режиссер: Давид Пастор, Алекс Пастор
Актеры: Ким Гутьеррес, Хосе Коронадо, Марта Этура, Летисия Долера, Микель Иглесиас, Иван Массаге, Пере Вентура, Луис Солер
Описание фильма:
2013 год. Таинственная эпидемия мгновенно распространилась по планете: теперь миром правит агорафобия — боязнь открытого пространства. Оставшиеся в живых люди прячутся под землей или внутри зданий.
Главный герой офисный клерк Марк. Внезапная эпидемия застала его на работе. Дома у Марка осталась беременная жена, которая должна вот вот родить. Ему нужно вернуться к ней, но как это сделать, если он не может выйти на улицу? Он начинает свой путь по подземным коммуникациям, перебираясь из подвала, в другой подвал, из одного тоннеля метро в другой тоннель. Ему остается совсем немного, он уже видит свою жену из окна соседнего дома, но перейти в него, можно только по улице. Решится ли он на этот шаг?

Продолжительность: 01:42:42
Качество видео: HDRip
Видеокодек: Xvid
Битрейт видео: ~1832 kb/s
Размер кадра: 720x304
Аудиокодек: AC3 2.0
Битрейт аудио: 192 kb/s

MediaInfo:

Общее
Полное имя : C:Торренты\Эпидемия.2013.HDRip.avi
Формат : AVI
Формат/Информация : Audio Video Interleave
Размер файла : 1,46 Гбайт
Продолжительность : 1 ч. 42 м.
Общий поток : 2033 Кбит/сек
Программа кодирования : VirtualDubMod 1.5.10.2 (build 2540/release)
Библиотека кодирования : VirtualDubMod build 2540/release
Видео
Идентификатор : 0
Формат : MPEG-4 Visual
Профиль формата : Advanced Simple@L5
Параметр BVOP формата : 2
Параметр QPel формата : Нет
Параметр GMC формата : Без точки перехода
Параметр матрицы формата : Default (MPEG)
Идентификатор кодека : XVID
Идентификатор кодека/Подсказка : XviD
Продолжительность : 1 ч. 42 м.
Битрейт : 1832 Кбит/сек
Ширина : 720 пикселей
Высота : 304 пикселя
Соотношение сторон : 2,35:1
Частота кадров : 24,000 кадра/сек
Цветовое пространство : YUV
Субдискретизация насыщенности : 4:2:0
Битовая глубина : 8 бит
Тип развёртки : Прогрессивная
Метод сжатия : С потерями
Бит/(Пиксели*Кадры) : 0.349
Размер потока : 1,31 Гбайт (90%)
Библиотека кодирования : XviD 1.2.1 (UTC 2008-12-04)
Аудио
Идентификатор : 1
Формат : AC-3
Формат/Информация : Audio Coding 3
Расширение режима : CM (complete main)
Параметр Endianness формата : Big
Идентификатор кодека : 2000
Продолжительность : 1 ч. 42 м.
Вид битрейта : Постоянный
Битрейт : 192 Кбит/сек
Каналы : 2 канала
Расположение каналов : Front: L R
Частота : 48,0 КГц
Битовая глубина : 16 бит
Метод сжатия : С потерями
Размер потока : 141 Мбайт (9%)
Выравнивание : Разделение по промежуткам
Продолжительность промежутка : 42 мс. (1,00 видеокадр)
Время предзагрузки промежутка : 500 мс.
Скриншоты:
[th]http://img.torrentsclub.org/di/DN56/1UqmteV.jpg[/th] [th]http://img.torrentsclub.org/di/0G7C/ynMUvRG.jpg[/th] [th]http://img.torrentsclub.org/di/P9B7/ZjH3JZd.jpg[/th]
Время раздачи: с 10.00 до 22.00

[Цитировать]

Топик был перенесен из форума Новинки кинопроката в форум Фантастика
Henkok



Показать сообщения:    

Текущее время: 11-Дек 13:04

Часовой пояс: UTC + 3


Вы не можете начинать темы
Вы не можете отвечать на сообщения
Вы не можете редактировать свои сообщения
Вы не можете удалять свои сообщения
Вы не можете голосовать в опросах
Вы не можете прикреплять файлы к сообщениям
Вы не можете скачивать файлы

!ВНИМАНИЕ!
Сайт не предоставляет электронные версии произведений, а занимается лишь коллекционированием и каталогизацией ссылок, присылаемых и публикуемых на форуме нашими читателями. Если вы являетесь правообладателем какого-либо представленного материала и не желаете, чтобы ссылка на него находилась в нашем каталоге, свяжитесь с нами, и мы незамедлительно удалим ее. Файлы для обмена на трекере предоставлены пользователями сайта, и администрация не несет ответственности за их содержание. Просьба не заливать файлы, защищенные авторскими правами, а также файлы нелегального содержания!