[ Сегодня идет свободное скачивание без начисления Download ]


Статистика раздачи
Нет
 
   
 
Top  
 
 
-Фотолаборатория / Darkroom (2013) HDRip- Год выпуска: 2013
Производство: США | Darkroom Films, Four of a Kind Productions, Frightening Entertainment
Жанр: Триллер
Перевод: Двуголосый закадровый, любительский
Озвучка / Автор перевода: (den904 и DeadSno)
Субтитры: Отсутствуют-Режиссер: Бритт Напье
Актеры: Кайли ДэФер, Элизабет Рём, Кристиан Кэмпбелл, Тобиас Сигал-Описание фильма:
Выжившая в ужасной автокатастрофе Мишель отправляется на новую работу, которую порекомедовали в реалибитационном центре, и становится заложницей трёх садистов-психопатов, решивших наказать девушку за её грехи...-
Продолжительность: 01:19:50
Качество видео: HDRip
Видеокодек: Xvid
Битрейт видео: ~ 1084 Кбит/сек
Размер кадра: 640 x 352 (1.818) at 23.976 fps
Аудиокодек: MP3 2.0
Битрейт аудио: 128 Кбит/сек, 48,0 КГц

MediaInfo:

Полное имя                               : G:\Fotolaboratoriya.2013.L2.HDRip.700MB.avi
Формат                                   : AVI
Формат/Информация                        : Audio Video Interleave
Размер файла                             : 698 Мбайт
Продолжительность                        : 1 ч. 19 м.
Общий поток                              : 1221 Кбит/сек
Программа кодирования                    : VirtualDubMod 1.5.10.2 (build 2540/release)
Библиотека кодирования                   : VirtualDubMod build 2540/release
Видео
Идентификатор                            : 0
Формат                                   : MPEG-4 Visual
Профиль формата                          : Advanced [email protected]
Параметр BVOP формата                    : 2
Параметр QPel формата                    : Нет
Параметр GMC формата                     : Без точки перехода
Параметр матрицы формата                 : Default (H.263)
Режим смешивания                         : Сжатый битовый поток
Идентификатор кодека                     : XVID
Идентификатор кодека/Подсказка           : XviD
Продолжительность                        : 1 ч. 19 м.
Битрейт                                  : 1084 Кбит/сек
Ширина                                   : 640 пикселей
Высота                                   : 352 пикселя
Соотношение сторон                       : 16:9
Частота кадров                           : 23,976 кадра/сек
Цветовое пространство                    : YUV
Субдискретизация насыщенности            : 4:2:0
Битовая глубина                          : 8 бит
Тип развёртки                            : Прогрессивная
Метод сжатия                             : С потерями
Бит/(Пиксели*Кадры)                      : 0.201
Размер потока                            : 619 Мбайт (89%)
Библиотека кодирования                   : XviD 64
Аудио
Идентификатор                            : 1
Формат                                   : MPEG Audio
Версия формата                           : Version 1
Профиль формата                          : Layer 3
Идентификатор кодека                     : 55
Идентификатор кодека/Подсказка           : MP3
Продолжительность                        : 1 ч. 19 м.
Вид битрейта                             : Постоянный
Битрейт                                  : 128 Кбит/сек
Каналы                                   : 2 канала
Частота                                  : 48,0 КГц
Метод сжатия                             : С потерями
Размер потока                            : 73,1 Мбайт (10%)
Выравнивание                             : Соединение по промежуткам
Продолжительность промежутка             : 42  мс. (1,00 видеокадр)
Время предзагрузки промежутка            : 504  мс.
Библиотека кодирования                   : LAME3.99.5
Скриншоты:

[th]http://img.torrentsclub.org/di/665H/ab5974a2429c.png[/th] [th]http://img.torrentsclub.org/di/EKEM/e640a64dcc60.png[/th] [th]http://img.torrentsclub.org/di/CLWC/d07e6f8e33a8.png[/th]

-Время раздачи: 24/7 (до 10 скачавших)

[Цитировать]



Показать сообщения:    

Текущее время: 05-Дек 13:38

Часовой пояс: UTC + 3


Вы не можете начинать темы
Вы не можете отвечать на сообщения
Вы не можете редактировать свои сообщения
Вы не можете удалять свои сообщения
Вы не можете голосовать в опросах
Вы не можете прикреплять файлы к сообщениям
Вы не можете скачивать файлы

!ВНИМАНИЕ!
Сайт не предоставляет электронные версии произведений, а занимается лишь коллекционированием и каталогизацией ссылок, присылаемых и публикуемых на форуме нашими читателями. Если вы являетесь правообладателем какого-либо представленного материала и не желаете, чтобы ссылка на него находилась в нашем каталоге, свяжитесь с нами, и мы незамедлительно удалим ее. Файлы для обмена на трекере предоставлены пользователями сайта, и администрация не несет ответственности за их содержание. Просьба не заливать файлы, защищенные авторскими правами, а также файлы нелегального содержания!